<?xml version="1.0" standalone="no"?>
<!DOCTYPE svg PUBLIC "-//W3C//DTD SVG 1.1//EN" "http://www.w3.org/Graphics/SVG/1.1/DTD/svg11.dtd" >
<svg xmlns="http://www.w3.org/2000/svg">
<metadata>Generated by IcoMoon</metadata>
<defs>
<font id="eTrackPlus" horiz-adv-x="1024">
<font-face units-per-em="1024" ascent="960" descent="-64" />
<missing-glyph horiz-adv-x="1024" />
<glyph unicode="&#x20;" horiz-adv-x="512" d="" />
<glyph unicode="&#xe900;" glyph-name="add" d="M903.509 569.924h-269.585v269.653c0 66.219-55.637 120.423-121.924 120.423s-121.924-54.204-121.924-120.423v-269.653h-269.653c-66.219 0-120.423-55.637-120.423-121.924s54.204-121.924 120.423-121.924h269.653v-269.585c0-66.287 55.637-120.491 121.924-120.491s121.924 54.204 121.924 120.491v269.585h269.585c66.287 0 120.491 55.637 120.491 121.924s-54.204 121.924-120.491 121.924z" />
<glyph unicode="&#xe901;" glyph-name="admin" d="M1016.832 263.36c-4.413-4.163-10.499-6.737-17.22-6.737-0.047 0-0.092 0-0.139 0h-50.283c-4.871-14.763-10.621-27.448-17.545-39.439l0.592 1.12 35.669-33.576c4.608-4.312 7.111-10.187 7.111-16.331 0-0.021 0-0.048 0-0.075 0-6.332-2.719-12.063-7.111-16.201l-62.692-59.069c-4.396-4.12-10.445-6.667-17.121-6.667-2.981 0-5.837 0.508-8.476 1.436l0.168-0.052c-16.632 43.448-40.905 80.769-71.62 112.388l0.224-0.233c42.68 25.932 70.589 70.605 70.713 121.461v0.017c-0.356 80.021-68.911 144.762-153.428 144.762-0.080 0-0.161 0-0.241 0h0.012c-18.603 0-36.181-3.611-52.679-9.377 2.901 19.025 4.437 38.212 4.437 57.020 0.001 0.344 0.003 0.751 0.003 1.157 0 29.192-4.216 57.451-12.104 84.259l0.553-2.203c4.144 3.369 9.543 5.453 15.452 5.551h88.711c13.483 0 24.405-10.348 24.405-23.067v-47.373c14.223-4.043 27.761-9.485 40.676-15.899l35.669 33.576c4.439 4.167 10.549 6.74 17.295 6.74s12.855-2.575 17.296-6.743l-0.001 0.001 62.692-59.068c4.388-4.18 7.1-9.941 7.1-16.303s-2.712-12.124-7.101-16.304l0.001 0.001-35.612-33.576c6.827-12.127 12.629-24.953 16.953-38.265h50.289c0 0 0 0 0 0 13.471 0 24.397-10.315 24.461-23.061v-0.005l0.057-83.591c-0.028-6.361-2.761-12.112-7.168-16.276v0zM842.696 321.404c0-41.715-24.975-77.663-61.327-96.472-45.748 38.229-102.624 65.501-165.443 76.949l-2.208 0.335c22.187 33.576 39.14 72.219 49.948 112.64 17.644 10.677 39.159 17.019 62.236 17.019 64.439 0 116.688-49.439 116.793-110.463v-0.009zM433.892 242.827c-104.164 0-188.644 140.288-188.644 270.983 0 271.575 377.344 271.036 377.344 0 0-130.695-84.48-270.983-188.7-270.983zM553.074 739.251c-15.447 8.277-33.325 15.228-52.152 19.973l-1.608 0.345c25.828 0 52.337 4.149 53.76-20.319zM276.594 800.475c35.783 0 67.356-16.708 86.869-42.145-71.396-19.509-125.839-68.931-153.202-137.755-80.271 60.2-34.020 179.9 66.332 179.9zM468.309 795.031c5.632-10.024 10.183-20.749 13.995-31.691-14.307 2.761-30.752 4.341-47.585 4.341-11.787 0-23.384-0.775-34.735-2.273l1.311 0.141c-25.037 41.543-71.453 69.123-124.68 69.255h-0.020c-0.051 0-0.112 0-0.172 0-79.039 0-143.15-60.548-143.472-135.355v-0.029c0-47.751 26.511-89.627 66.276-113.717-5.46-21.439-8.591-46.052-8.591-71.359 0-0.189 0-0.377 0-0.567v0.029l0.057-1.077c-5.12 2.156-10.639 3.665-15.588 6.144l-32.939-31.097c-4.132-3.836-9.795-6.204-16.043-6.204s-11.911 2.368-16.047 6.207l0.004-0.004-58.14 54.757c-4.107 3.859-6.649 9.207-6.649 15.117s2.543 11.259 6.648 15.116l0.001 0.001 32.996 31.097c-5.773 10.019-11.095 21.753-15.264 33.979l-0.437 1.484h-46.535c-0.017 0-0.037 0-0.057 0-12.485 0-22.609 9.573-22.641 21.393v77.449c0 11.803 10.127 21.396 22.699 21.396h46.592c4.039 12.341 9.329 24.199 15.644 35.463l-32.996 31.044c-4.096 3.873-6.631 9.228-6.631 15.144s2.535 11.271 6.631 15.144v0l58.14 54.703c4.113 3.875 9.783 6.269 16.043 6.269s11.929-2.395 16.044-6.269l-0.001 0.001 32.996-31.097c12.004 5.983 24.519 10.995 37.66 14.767v43.924c0 11.803 10.183 21.343 22.699 21.343h82.204c12.572 0 22.699-9.54 22.699-21.343v-43.924c13.141-3.772 25.713-8.785 37.66-14.767l33.052 31.097c4.079 3.924 9.747 6.355 16.015 6.355s11.936-2.431 16.012-6.352l0.003-0.003 58.14-54.703c4.093-3.865 6.625-9.211 6.625-15.117s-2.533-11.252-6.625-15.117v0zM37.944 66.86c38.059 105.472 138.524 177.96 254.578 187.823 38.855-38.751 86.983-63.38 141.37-63.38 54.5 0 102.571 24.629 141.426 63.38 115.996-9.863 216.519-82.351 254.522-187.77l21.049-58.315c1.956-5.272 3.085-11.351 3.085-17.679 0-30.331-25.953-54.919-57.969-54.919-0.125 0-0.249 0-0.375 0.001h-723.496c-18.773 0-36.409 8.569-47.388 22.959-6.813 8.855-10.901 19.952-10.901 31.952 0 6.332 1.137 12.412 3.231 18.067l-0.123-0.383z" />
<glyph unicode="&#xe902;" glyph-name="applications" d="M998.929 489.097l-153.876-153.668v-309.453c-0.077-49.637-40.367-89.859-90.097-89.976h-664.847c-49.743 0.116-90.032 40.339-90.109 89.968v842.077c0 49.767 40.3 91.955 90.109 91.955h544.691c7.732 0 15.6-3.072 21.484-9.011l180.013-183.773c5.412-5.42 8.757-12.896 8.757-21.152 0-0.028 0-0.056 0-0.084v0.004-155.989l26.411 26.351c16.167 15.46 38.148 24.979 62.357 24.979 49.804 0 90.177-40.284 90.177-89.976 0-24.172-9.553-46.117-25.099-62.284l0.029 0.031zM664.834 856.44v-80.419h78.82zM784.979 716.014h-150.181c-16.573 0.039-29.997 13.433-30.036 29.965v154.081h-514.655c-16.011 0-30.036-15.019-30.036-32.017v-842.069c0.039-16.536 13.464-29.931 30.032-29.969h664.84c16.573 0.039 29.997 13.433 30.036 29.965v249.451l-125.893-125.747c-2.235-2.223-4.804-4.112-7.627-5.584l-0.173-0.083-169.955-84.856c-5.953-2.936-24.425-3.14-26.752-3.14h-122.199c-15.997 0.785-28.671 13.917-28.671 30.003s12.672 29.219 28.6 30l0.071 0.003h116.929l76.699 153.123c1.523 2.993 3.395 5.559 5.612 7.784l-0.001-0.001 253.359 253.064zM605.035 188.041c-5.623 16.529-18.411 29.311-34.573 34.837l-0.389 0.116-35.031-69.905zM807.763 467.865l-197.665-197.427c17.652-10.172 32.295-24.781 42.489-42.393l197.665 197.359zM956.439 573.952c-5.444 5.411-12.952 8.755-21.244 8.755s-15.801-3.345-21.245-8.756l-63.697-63.692 42.489-42.393 63.699 63.624c5.427 5.443 8.78 12.945 8.78 21.231s-3.355 15.788-8.781 21.232l0.001-0.001zM574.725 656.009h120.145c16.608 0 30.071-13.433 30.071-30.003s-13.463-30.003-30.071-30.003v0h-120.145c-15.997 0.785-28.671 13.917-28.671 30.003s12.672 29.219 28.6 30l0.071 0.003zM574.725 535.996h120.145c16.608 0 30.071-13.433 30.071-30.003s-13.463-30.003-30.071-30.003h-120.145c-15.997 0.785-28.671 13.917-28.671 30.003s12.672 29.219 28.6 30l0.071 0.003zM454.579 416.052h-304.4c-0.020 0-0.044 0-0.068 0-16.551 0-29.968 13.387-29.968 29.901 0 0.024 0 0.048 0 0.072v-0.004 29.969c0 68.608 38.863 126.908 94.145 157.355-21.027 21.244-34.029 50.439-34.073 82.663v0.009c0 66.628 56.036 120.013 122.129 120.013s122.197-53.316 122.197-120.013c0-30.925-12.111-60.143-34.073-82.671 56.315-31.005 93.887-89.772 94.145-157.319v-30.005c0-16.552-13.448-29.969-30.036-29.969v0zM302.345 776.021c-33.595 0-62.057-27.512-62.057-60.007s28.463-60.007 62.057-60.007c33.663 0 62.125 27.512 62.125 60.007s-28.463 60.007-62.125 60.007zM302.345 596.002c-67.325 0-122.129-53.795-122.129-120.013h244.328c0 66.219-54.804 120.013-122.197 120.013zM150.179 356.045h244.328c15.997-0.785 28.671-13.917 28.671-30.003s-12.672-29.219-28.6-30l-0.071-0.003h-244.328c-16.608 0-30.071 13.433-30.071 30.003s13.463 30.003 30.071 30.003v0zM150.179 236.032h244.328c15.997-0.785 28.671-13.917 28.671-30.003s-12.672-29.219-28.6-30l-0.071-0.003h-244.328c-16.608 0-30.071 13.433-30.071 30.003s13.463 30.003 30.071 30.003v0z" />
<glyph unicode="&#xe903;" glyph-name="ascending" d="M286.612 594.788l156.989 146.677v-741.397c0-35.325 30.608-64.068 68.347-64.068 37.849 0 68.457 28.743 68.457 64.068v741.397l156.88-146.677c12.709-11.636 29.712-18.765 48.38-18.765s35.672 7.129 48.435 18.815l-0.055-0.049c12.364 11.207 20.099 27.327 20.099 45.253s-7.733 34.048-20.047 45.208l-0.052 0.045-273.717 255.945c-1.536 1.536-3.291 2.852-4.937 4.279l-2.523 1.645c-0.807 0.644-1.736 1.329-2.689 1.98l-0.163 0.104-3.072 1.645-2.743 1.536-3.072 1.427c-0.749 0.364-1.728 0.772-2.728 1.133l-0.233 0.073-3.072 1.097-3.291 1.097-3.072 0.659-3.401 0.877c-0.981 0.176-2.223 0.332-3.48 0.431l-0.141 0.009-2.963 0.439c-2.023 0.209-4.371 0.329-6.747 0.329s-4.724-0.12-7.039-0.353l0.292 0.024-3.072-0.439c-1.399-0.108-2.639-0.263-3.861-0.473l0.241 0.035-3.401-0.877-3.072-0.659-3.291-1.097-2.963-1.097-2.963-1.207c-1.341-0.532-2.389-1.012-3.412-1.532l0.231 0.107-2.743-1.536-2.963-1.645c-1.175-0.764-2.14-1.451-3.079-2.169l0.116 0.085-2.413-1.645c-1.819-1.371-3.431-2.773-4.937-4.279v0h-0.109l-273.716-255.945c-12.303-11.237-19.991-27.348-19.991-45.253s7.688-34.017 19.944-45.211l0.048-0.043c12.709-11.636 29.712-18.765 48.38-18.765s35.672 7.129 48.435 18.815l-0.055-0.049z" />
<glyph unicode="&#xe904;" glyph-name="business-rules" d="M992.111 626.466h-146.579v-501.101c0-0.087 0-0.191 0-0.293 0-84.020-67.945-152.169-151.887-152.501h-0.032c-2.56 0-4.901 0.656-7.388 0.805v-0.805h-540.745v0.656c-81.117 3.701-145.481 70.365-145.481 152.061 0 0.028 0 0.055 0 0.083v-0.004 77.971c0 17.7 14.263 32.036 31.891 32.036h109.568l4.023 571.831c0 64 52.444 116.224 116.883 116.224h640.512c66.78 0 121.124-54.637 121.124-121.783v-143.14c0-0.021 0-0.048 0-0.073 0-17.627-14.269-31.921-31.887-31.964h-0.004zM63.708 171.298v-45.933c0-48.86 39.497-88.649 88.137-88.649h418.596c-17.905 24.569-28.655 55.352-28.672 88.644v45.937zM262.364 859.353c-29.257 0-53.101-23.479-53.101-52.371l-4.023-571.612h368.348c17.628 0 31.891-14.336 31.891-32.036v-77.971c0-48.86 39.571-88.723 88.137-88.723 48.64 0 88.211 39.863 88.211 88.723v676.279c0 21.284 6.876 40.301 16.457 57.709zM960.293 801.644c0 0.021 0 0.048 0 0.073 0 31.755-25.68 57.512-57.405 57.636h-0.012c-31.705-0.167-57.344-25.907-57.344-57.636 0-0.025 0-0.052 0-0.077v0.004-111.104h114.761zM664.943 296.3h-355.84c-17.621 0.041-31.891 14.336-31.891 31.964 0 0.025 0 0.052 0 0.077v-0.004c0 17.7 14.263 32.036 31.891 32.036h355.84c17.628 0 31.891-14.336 31.891-32.036 0-0.021 0-0.048 0-0.073 0-17.627-14.269-31.921-31.887-31.964h-0.004zM664.943 424.52h-355.84c-17.621 0.041-31.891 14.336-31.891 31.964 0 0.025 0 0.052 0 0.077v-0.004c0 17.7 14.263 32.036 31.891 32.036h355.84c17.628 0 31.891-14.336 31.891-32.036 0-0.021 0-0.048 0-0.073 0-17.627-14.269-31.921-31.887-31.964h-0.004zM664.943 552.738h-355.84c-17.621 0.041-31.891 14.336-31.891 31.964 0 0.025 0 0.052 0 0.077v-0.004c0 17.7 14.263 32.036 31.891 32.036h355.84c17.628 0 31.891-14.336 31.891-32.036 0-0.021 0-0.048 0-0.073 0-17.627-14.269-31.921-31.887-31.964h-0.004zM473.747 680.885h-164.644c-17.713 0-32.073 14.36-32.073 32.073s14.36 32.073 32.073 32.073h164.644c17.713 0 32.073-14.36 32.073-32.073s-14.36-32.073-32.073-32.073v0z" />
<glyph unicode="&#xe905;" glyph-name="calendar-with-clock" d="M126.782 802.55v127.928c0 19.681 9.752 29.521 29.257 29.521s29.257-9.84 29.257-29.521v-127.928c0-19.681-9.752-29.521-29.257-29.521s-29.257 9.84-29.257 29.521zM663.162 773.027c19.505 0 39.009 9.84 39.009 29.521v127.928c0 19.681-9.752 29.521-29.257 29.521s-29.257-9.84-29.257-29.521v-127.928c-9.752-19.681 9.752-29.521 19.505-29.521zM1024 192.43c0-137.769-117.028-255.856-253.561-255.856-146.285-9.84-263.315 108.247-263.315 255.856 0 137.769 117.028 255.857 253.561 255.857 146.285 0 263.315-118.088 263.315-255.857zM955.734 192.43c0 108.247-87.772 196.813-195.048 196.813s-195.048-88.565-195.048-196.813c0-108.247 87.772-196.813 195.048-196.813s195.048 88.565 195.048 196.813zM253.562 576.215h-126.781v-127.928h126.781zM126.782 251.474h126.781v127.928h-126.781zM312.076 448.286h126.781v127.928h-126.781zM312.076 251.474h126.781v127.928h-126.781zM58.515 192.43v452.669h702.172v-127.928h68.267v246.016c0 39.363-29.257 68.884-68.267 68.884h-29.257v-29.521c0-39.363-29.257-59.044-68.267-59.044-29.257 0-58.515 19.681-58.515 59.044v29.521h-390.095v-29.521c0-39.363-19.505-59.044-58.515-59.044s-68.267 19.681-68.267 59.044v29.521h-19.505c-39.009 0-68.267-29.521-68.267-68.884v-570.757c0-39.363 29.257-68.884 68.267-68.884h380.343v68.884zM633.906 448.286v127.928h-126.781v-127.928zM858.21 192.43h-97.524v98.407c0 19.681-9.752 29.521-29.257 29.521s-29.257-19.681-29.257-29.521v-137.769c0-19.681 9.752-29.521 29.257-29.521h126.781c19.505 0 29.257 9.84 29.257 29.521s-9.752 39.363-29.257 39.363z" />
<glyph unicode="&#xe906;" glyph-name="cancel" d="M1024 857.6l-102.4 102.4-409.6-409.6-409.6 409.6-102.4-102.4 409.6-409.6-409.6-409.6 102.4-102.4 409.6 409.6 409.6-409.6 102.4 102.4-409.6 409.6z" />
<glyph unicode="&#xe907;" glyph-name="cursor" d="M1018.928 97.685l-208.417 200.18 146.664 84.692c7.719 7.699 15.439 23.097 15.439 38.496s-7.719 23.097-23.157 30.797l-648.409 254.075c-15.439 7.699-30.876 0-38.596-7.699s-15.439-23.097-7.719-38.496l262.452-654.436c0-7.699 15.439-15.399 23.157-15.399 15.439 0 23.157 7.699 30.877 15.399l84.911 146.285 208.417-207.88c7.719-7.699 15.439-7.699 23.157-7.699s15.439 0 23.157 7.699l100.349 100.091c15.439 15.399 15.439 38.496 7.719 53.895zM146.663 867.61c-15.439 15.399-38.596 15.399-46.315 0-15.439-15.399-15.439-38.496 0-46.196l77.192-76.992c0-15.399 7.719-15.399 23.157-15.399 7.719 0 15.439 0 23.157 7.699 15.439 15.399 15.439 38.496 0 46.196zM169.82 628.933c0 15.399-15.439 30.797-30.876 30.797h-108.068c-15.439 0-30.876-15.399-30.876-30.797s15.439-30.797 30.876-30.797h108.068c15.439-7.699 30.876 7.699 30.876 30.797zM154.381 521.144l-77.192-76.992c-15.439-15.399-15.439-38.496 0-46.196 7.719-7.699 15.439-7.699 23.157-7.699s15.439 0 23.157 7.699l77.192 76.992c15.439 15.399 15.439 38.496 0 46.196-7.719 15.399-30.876 15.399-46.315 0zM331.923 790.617c15.439 0 30.876 15.399 30.876 30.797v107.789c0 15.399-15.439 30.797-30.876 30.797s-30.876-15.399-30.876-30.797v-107.789c0-15.399 15.439-30.797 30.876-30.797zM463.148 744.422c7.719 0 15.439 0 23.157 7.699l77.192 76.992c15.439 15.399 15.439 38.496 0 46.196-15.439 15.399-38.596 15.399-46.315 0l-77.192-76.992c-15.439-15.399-15.439-38.496 0-46.196 7.719-7.699 15.439-7.699 23.157-7.699z" />
<glyph unicode="&#xe908;" glyph-name="dashboard" d="M512-64c-0.081 0-0.177 0-0.273 0-282.619 0-511.727 229.108-511.727 511.727 0 0.096 0 0.192 0 0.288v-0.015c0 283.033 228.967 512 512 512 282.965 0 512-228.967 512-512 0-282.965-229.035-512-512-512zM512 879.992c-0.081 0-0.177 0-0.273 0-238.432 0-431.719-193.287-431.719-431.719 0-0.096 0-0.192 0-0.288v0.015c0-0.061 0-0.133 0-0.205 0-238.469 193.317-431.787 431.787-431.787 0.072 0 0.144 0 0.216 0h-0.012c0.061 0 0.133 0 0.205 0 238.469 0 431.787 193.317 431.787 431.787 0 0.072 0 0.144 0 0.216v-0.011c0 0.081 0 0.177 0 0.273 0 238.432-193.287 431.719-431.719 431.719-0.096 0-0.192 0-0.288 0h0.015zM880.162 407.996h-58.709c-22.081 0.016-39.976 17.92-39.976 40.004s17.895 39.988 39.975 40.004h58.711c0.008 0 0.019 0 0.028 0 22.093 0 40.004-17.911 40.004-40.004s-17.911-40.004-40.004-40.004c-0.011 0-0.020 0-0.031 0h0.001zM700.894 695.193c-6.897-12.617-20.076-21.032-35.219-21.032-22.093 0-40.004 17.911-40.004 40.004 0 7.759 2.208 15.001 6.031 21.133l-0.099-0.169 29.355 50.927c7.045 12.043 19.916 20.003 34.645 20.003 22.095 0 40.005-17.911 40.005-40.005 0-7.364-1.991-14.264-5.461-20.191l0.103 0.189zM643.004 594.979l-56.661-98.168c9.072-13.725 14.472-30.569 14.472-48.675 0-49.105-39.731-88.932-88.8-89.088h-0.015c-48.092 1.375-86.555 40.688-86.555 88.985s38.463 87.611 86.428 88.983l0.127 0.003c1.707 0 3.413-0.068 5.052-0.205l56.661 98.168c7.045 12.043 19.916 20.003 34.645 20.003 22.095 0 40.005-17.911 40.005-40.005 0-7.364-1.991-14.264-5.461-20.191l0.103 0.189zM377.788 680.516c-5.74-3.373-12.644-5.365-20.013-5.365-14.745 0-27.628 7.979-34.567 19.853l-0.103 0.189-29.355 50.859c-3.369 5.737-5.36 12.637-5.36 20.003 0 22.095 17.911 40.005 40.005 40.005 14.729 0 27.6-7.96 34.543-19.813l0.103-0.189 29.355-50.927c3.381-5.74 5.379-12.645 5.379-20.016 0-14.712-7.955-27.565-19.799-34.495l-0.189-0.103zM204.526 407.996h-58.777c-22.081 0.016-39.976 17.92-39.976 40.004s17.895 39.988 39.975 40.004h58.779c22.081-0.016 39.976-17.92 39.976-40.004s-17.895-39.988-39.975-40.004h-0.001z" />
<glyph unicode="&#xe909;" glyph-name="delete" d="M901.263 692.267h-70.4v-717.725c0.003-0.149 0.003-0.325 0.003-0.501 0-20.812-16.712-37.721-37.449-38.040h-562.874c-20.736 0.359-37.408 17.252-37.408 38.039 0 0.177 0.001 0.353 0.004 0.529v-0.027 717.725h-70.4c-20.736 0.359-37.408 17.252-37.408 38.039 0 0.177 0.001 0.353 0.004 0.529v-0.027 96.996c0 58.809 46.436 106.667 103.537 106.667h226.204c5.127 14.853 18.915 25.363 35.18 25.529h123.469c16.213 0 30.009-10.667 35.2-25.529h226.204c57.103 0 103.537-47.857 103.537-106.667v-96.996c0.003-0.149 0.003-0.327 0.003-0.503 0-20.788-16.672-37.681-37.375-38.039h-0.033zM268.017 13.084h487.965v679.183h-487.965zM863.787 827.805c0.003 0.128 0.003 0.279 0.003 0.429 0 15.913-12.781 28.843-28.639 29.081h-646.281c-15.88-0.239-28.661-13.168-28.661-29.081 0-0.151 0.001-0.301 0.004-0.452v0.023-58.453h703.574zM610.063 146.133c-20.736 0.359-37.408 17.252-37.408 38.039 0 0.177 0.001 0.353 0.004 0.529v-0.027 406.33c0 21.333 16.783 38.543 37.404 38.543 20.693 0 37.476-17.209 37.476-38.543v-406.33c0.003-0.149 0.003-0.325 0.003-0.501 0-20.812-16.712-37.721-37.449-38.040h-0.029zM413.938 146.133c-20.767 0.319-37.479 17.228-37.479 38.040 0 0.176 0.001 0.353 0.004 0.528v-0.027 406.33c0 21.333 16.783 38.543 37.476 38.543 20.623 0 37.404-17.209 37.404-38.543v-406.33c0.003-0.149 0.003-0.327 0.003-0.503 0-20.788-16.672-37.681-37.375-38.039h-0.033z" />
<glyph unicode="&#xe90a;" glyph-name="descending" d="M737.389 301.208l-156.99-146.678v741.401c0 35.326-30.608 64.068-68.347 64.068-37.85 0-68.458-28.743-68.458-64.068v-741.401l-156.881 146.678c-12.709 11.636-29.712 18.765-48.38 18.765s-35.672-7.129-48.435-18.815l0.055 0.049c-12.364-11.207-20.099-27.327-20.099-45.254s7.733-34.048 20.047-45.208l0.052-0.045 273.719-255.947c1.536-1.536 3.291-2.852 4.937-4.279l2.523-1.645c0.807-0.644 1.736-1.329 2.689-1.98l0.163-0.104 3.072-1.645 2.743-1.536 3.072-1.427c0.749-0.364 1.728-0.772 2.728-1.133l0.233-0.073 3.072-1.097 3.291-1.097 3.072-0.656 3.401-0.877c0.981-0.175 2.223-0.331 3.48-0.428l0.14-0.009 2.963-0.437c2.023-0.209 4.371-0.329 6.747-0.329s4.724 0.12 7.039 0.353l-0.292-0.024 3.072 0.437c1.397 0.107 2.639 0.261 3.861 0.471l-0.241-0.035 3.401 0.877 3.072 0.656 3.291 1.097 2.963 1.097 2.963 1.207c1.341 0.532 2.389 1.012 3.411 1.532l-0.231-0.107 2.743 1.536 2.963 1.645c1.175 0.764 2.14 1.451 3.079 2.169l-0.116-0.085 2.413 1.645c1.819 1.371 3.431 2.773 4.937 4.279v0h0.109l273.719 255.947c12.303 11.237 19.991 27.348 19.991 45.254s-7.688 34.018-19.944 45.211l-0.048 0.043c-12.709 11.636-29.712 18.765-48.38 18.765s-35.672-7.129-48.435-18.815l0.055 0.049z" />
<glyph unicode="&#xe90b;" glyph-name="document-templates" d="M908.675 655.976c-7.359 19.599-17.773 36.444-30.833 50.847l0.117-0.132-199.583 207.979c-13.553 13.415-29.699 24.24-47.615 31.652l-0.984 0.36c-20.477 8.873-39.248 13.311-56.312 13.311h-409.472c-0.259 0.004-0.564 0.007-0.871 0.007-16.825 0-31.977-7.161-42.575-18.603l-0.035-0.037c-11.109-11.38-17.963-26.957-17.963-44.136 0-0.417 0.004-0.833 0.012-1.248l-0.001 0.063v-896.006c0-17.815 6.007-32.9 17.952-45.323 10.613-11.519 25.773-18.709 42.612-18.709 0.305 0 0.609 0.003 0.913 0.007h696.037c17.064 0 31.535 6.212 43.48 18.703 11.069 11.332 17.897 26.848 17.897 43.959 0 0.48-0.005 0.957-0.016 1.435l0.001-0.071v597.315c0 17.815-4.232 37.336-12.764 58.632zM593.943 869.347c12.355-4.436 21.091-9.351 26.211-14.675l200.266-208.662c5.051-5.324 9.761-14.471 14.061-27.371h-240.536zM839.599 21.325h-655.129v853.346h327.564v-277.327c0-17.815 5.939-32.9 17.883-45.323 10.636-11.52 25.815-18.709 42.672-18.709 0.308 0 0.616 0.003 0.923 0.007h266.087z" />
<glyph unicode="&#xe90c;" glyph-name="drag_drop" d="M-0.001 813.227h703.148v-129.707h-703.148v129.707zM-0.001 663.040h703.148v-129.707h-703.148v129.707zM-0.001 512.854h703.148v-129.707h-703.148v129.707zM320.852 362.667h703.148v-129.707h-703.148v129.707zM-0.001 212.481h703.148v-129.707h-703.148v129.707z" />
<glyph unicode="&#xe90d;" glyph-name="edit" d="M927.986 694.784l-67.699-67.699-169.316 169.459 67.769 67.699c6.7 6.397 15.797 10.335 25.813 10.335s19.113-3.937 25.828-10.348l-0.015 0.013 117.619-117.832c14.223-14.223 14.223-37.404 0-51.627zM362.223 128.382l-169.245 169.529 437.619 438.259 169.316-169.529zM153.867 216.133l126.649-126.792-176.356-49.777zM988.36 806.784l-117.619 117.903c-22.969 22.969-105.956 66.417-172.232 0l-596.268-596.696c-5.045-5.003-8.805-11.295-10.741-18.341l-0.068-0.289-89.885-319.93c-0.969-3.423-1.525-7.353-1.525-11.413 0-11.839 4.735-22.571 12.413-30.407l-0.007 0.007c10.88-11.093 32.569-12.943 41.813-10.88l319.716 90.099c7.349 2 13.648 5.788 18.624 10.873l0.007 0.007 595.771 596.624c22.011 22.092 35.619 52.568 35.619 86.223s-13.608 64.131-35.623 86.227l0.004-0.004z" />
<glyph unicode="&#xe90f;" glyph-name="export" d="M1014.471 250.912l1.145 1.707c0.405 0.56 0.84 1.204 1.256 1.865l0.069 0.115 1.084 2.048c0.305 0.495 0.644 1.096 0.963 1.713l0.061 0.129 0.903 2.116 0.843 2.048c0.196 0.501 0.42 1.18 0.619 1.873l0.044 0.175 0.723 2.253 0.485 2.116 0.485 2.253 0.361 2.457c0.311 1.843 0.488 3.964 0.488 6.131 0 0.173-0.001 0.345-0.004 0.517v0.111c0.003 0.153 0.004 0.333 0.004 0.513 0 2.136-0.177 4.224-0.517 6.248l0.029-0.208-0.361 2.457c-0.165 0.975-0.333 1.755-0.528 2.523l0.044-0.201-0.485 2.048c-0.177 0.819-0.485 1.501-0.723 2.253-0.243 0.9-0.468 1.603-0.719 2.291l0.056-0.173-0.843 1.98c-0.3 0.683-0.539 1.433-0.903 2.116l-1.024 1.843-1.084 2.048c-0.485 0.775-0.92 1.42-1.372 2.048l0.048-0.068-1.144 1.707c-0.851 1.163-1.696 2.208-2.587 3.204l-0.004 0.004-0.177 0.205-104.627 116.326c-7.631 8.423-18.068 13.619-29.576 13.619s-21.944-5.195-29.585-13.628l0.009 0.011c-7.589-8.337-12.299-19.997-12.299-32.904s4.711-24.566 12.288-32.893l0.011-0.012 33.189-36.932h-127.761v243.915l0.060 1.229c-0.033 11.364-3.696 21.752-9.744 29.758l0.047-0.063-2.409 3.004c-0.159 0.124-0.297 0.259-0.423 0.408l-0.001 0.001-1.084 1.229-305.691 339.965c-0.817 0.917-1.681 1.789-2.585 2.605l-0.065 0.056-0.904 0.819c-0.596 0.555-1.264 1.116-1.955 1.64l-0.093 0.067-1.024 0.819-2.229 1.501c-0.271 0.187-0.587 0.369-0.916 0.527l-0.048 0.020-3.072 1.707-1.325 0.547c-0.995 0.511-2.179 0.979-3.404 1.329l-0.151 0.036c-0.843 0.273-1.627 0.547-2.469 0.683l-1.084 0.341c-1.144 0.273-2.349 0.409-3.553 0.615l-1.084 0.068c-0.964 0.136-1.988 0.136-2.952 0.205h-363.334c-0.125 0.001-0.275 0.003-0.423 0.003-22.761 0-41.237-20.796-41.44-46.538v-930.897c0-25.736 18.733-46.557 41.864-46.557h669.627c0.125-0.001 0.275-0.003 0.423-0.003 22.761 0 41.237 20.796 41.44 46.538v251.376h127.757l-33.189-36.932c-7.589-8.337-12.299-19.997-12.299-32.904s4.711-24.566 12.288-32.893l0.011-0.012c8.132-9.080 18.853-13.653 29.576-13.653 0.035 0 0.075 0 0.116 0 11.476 0 21.878 5.212 29.466 13.66l-0.007-0.007 104.687 116.394c0.933 1.045 1.819 2.136 2.657 3.272l0.053 0.073zM446.399 801.069l164.078-182.406h-164.078zM669.627 29.116h-585.901v837.83h279.007v-294.841c0-25.668 18.733-46.489 41.864-46.489h265.032v-198.654h-181.366c-0.125 0.001-0.275 0.003-0.424 0.003-22.74 0-41.202-20.757-41.44-46.466v-0.025c0-25.736 18.733-46.557 41.864-46.557h181.366z" />
<glyph unicode="&#xe910;" glyph-name="flows" d="M987.428 228.571h-73.143v146.286c0 21.943-14.629 36.571-36.571 36.571h-329.143v256h182.857c21.943 0 36.571 14.629 36.571 36.571v219.429c0 21.943-14.629 36.571-36.571 36.571h-438.857c-21.943 0-36.571-14.629-36.571-36.571v-219.429c0-21.943 14.629-36.571 36.571-36.571h182.857v-256h-329.143c-21.943 0-36.571-14.629-36.571-36.571v-146.286h-73.143c-21.943 0-36.571-14.629-36.571-36.571v-219.429c0-21.943 14.629-36.571 36.571-36.571h219.429c21.943 0 36.571 14.629 36.571 36.571v219.429c0 21.943-14.629 36.571-36.571 36.571h-73.143v109.714h292.571v-109.714h-73.143c-21.943 0-36.571-14.629-36.571-36.571v-219.429c0-21.943 14.629-36.571 36.571-36.571h219.429c21.943 0 36.571 14.629 36.571 36.571v219.429c0 21.943-14.629 36.571-36.571 36.571h-73.143v109.714h292.571v-109.714h-73.143c-21.943 0-36.571-14.629-36.571-36.571v-219.429c0-21.943 14.629-36.571 36.571-36.571h219.429c21.943 0 36.571 14.629 36.571 36.571v219.429c0 21.943-14.629 36.571-36.571 36.571zM219.428 155.429v-146.286h-146.286v146.286h146.286zM585.142 155.429v-146.286h-146.286v146.286h146.286zM329.142 740.571v146.286h365.714v-146.286h-365.714zM950.856 9.143h-146.286v146.286h146.286v-146.286z" />
<glyph unicode="&#xe911;" glyph-name="hamburger" d="M485.148 71.993h-433.948c-28.273 0-51.2-24.064-51.2-53.76 0-29.639 22.927-53.703 51.2-53.703h433.948c28.331 0 51.2 24.064 51.2 53.703 0 29.696-22.869 53.76-51.2 53.76zM51.2 824.006h921.6c28.273 0 51.2 24.064 51.2 53.76 0 29.639-22.927 53.703-51.2 53.703h-921.6c-28.273 0-51.2-24.064-51.2-53.703 0-29.696 22.927-53.76 51.2-53.76zM972.8 501.731h-921.6c-28.273 0-51.2-24.064-51.2-53.76 0-29.639 22.927-53.703 51.2-53.703h921.6c28.273 0 51.2 24.064 51.2 53.703 0 29.696-22.927 53.76-51.2 53.76z" />
<glyph unicode="&#xe912;" glyph-name="hash-tag" d="M1023.998 542.040v167.184h-174.297l21.787 250.776h-174.297l-32.681-250.776h-228.765l32.681 250.776h-174.297l-43.575-250.776h-250.553v-167.184h217.872l-21.787-188.081h-196.085v-167.184h174.297l-21.787-250.776h174.297l32.681 250.776h228.765l-32.681-250.776h174.297l32.681 250.776h250.553v167.184h-217.872l32.681 198.53c0-10.449 196.085-10.449 196.085-10.449zM610.041 353.957h-217.872l21.787 198.53h228.765z" />
<glyph unicode="&#xe913;" glyph-name="help" d="M512.001 959.997c-0.468 0.001-1.023 0.003-1.577 0.003-281.898 0-510.423-228.524-510.423-510.423 0-0.555 0.001-1.109 0.003-1.664v0.085c0-283.884 228.036-511.998 511.998-511.998 283.884 0 511.998 228.114 511.998 511.998 0 283.962-228.114 511.998-511.998 511.998zM558.553 168.762c0-13.943-9.295-23.316-23.316-23.316h-46.552c-13.943 0-23.237 9.373-23.237 23.316v46.552c0 13.943 9.295 23.237 23.237 23.237h46.552c14.021 0 23.316-9.295 23.316-23.237zM621.332 375.845c-32.532-27.884-55.847-46.552-62.779-72.152-2.032-10.66-11.279-18.608-22.381-18.608-0.328 0-0.655 0.007-0.98 0.021l0.047-0.001h-46.552c-13.943 0-25.521 11.657-23.237 25.6 9.295 67.505 58.211 104.763 97.752 137.295 41.905 32.611 65.141 53.563 65.141 93.105 0 65.141-51.2 116.341-116.341 116.341s-116.341-51.2-116.341-116.341v-13.943c0.328-1.405 0.516-3.019 0.516-4.675 0-10.201-7.129-18.737-16.679-20.897l-0.144-0.027-44.268-13.943c-2.171-0.74-4.672-1.168-7.272-1.168-11.605 0-21.224 8.508-22.959 19.627l-0.017 0.131c-2.284 11.657-2.284 23.237-2.284 34.895-0.001 0.257-0.001 0.563-0.001 0.868 0 115.196 93.384 208.58 208.58 208.58 0.305 0 0.611 0 0.916-0.001h-0.047c0.257 0.001 0.563 0.001 0.868 0.001 115.196 0 208.58-93.384 208.58-208.58 0-0.305 0-0.611-0.001-0.916v0.047c0-86.095-55.847-130.363-100.116-165.257z" />
<glyph unicode="&#xe914;" glyph-name="home" d="M35.44 361.753h83.363v-330.076c0-19.455 16.143-35.417 35.779-35.417h244.244c0.019 0 0.040 0 0.061 0 19.62 0 35.547 15.82 35.717 35.401v241.67h148.896v-241.654c0-19.455 16.083-35.417 35.779-35.417h232.318c0.019 0 0.040 0 0.061 0 19.621 0 35.547 15.82 35.717 35.401v330.092h101.252c14.645 0.072 27.203 8.932 32.677 21.572l0.089 0.232c1.648 3.937 2.607 8.512 2.607 13.312 0 9.765-3.967 18.605-10.376 24.996l-0.001 0.001-465.841 467.406c-6.492 6.468-15.447 10.467-25.336 10.467-9.585 0-18.293-3.757-24.732-9.879l0.015 0.015-486.741-467.406c-6.773-6.425-10.988-15.491-10.988-25.54 0-19.427 15.749-35.176 35.176-35.176 0.093 0 0.187 0 0.28 0.001h-0.015zM521.518 814.464l381.334-381.997h-51.259c-0.019 0-0.040 0-0.061 0-19.588 0-35.487-15.793-35.656-35.34v-330.092h-160.881v241.654c-0.171 19.564-16.069 35.357-35.656 35.357-0.021 0-0.043 0-0.065 0h-220.448c-0.019 0-0.040 0-0.061 0-19.588 0-35.487-15.793-35.656-35.34v-241.67h-172.808v330.076c-0.171 19.564-16.069 35.357-35.656 35.357-0.021 0-0.043 0-0.065 0h-30.956z" />
<glyph unicode="&#xe915;" glyph-name="ic-play" d="M409.6 217.6l307.2 230.4-307.2 230.4zM512 960c-284.16 0-512-227.84-512-512s227.84-512 512-512c284.16 0 512 230.4 512 512s-230.4 512-512 512zM512 38.4c-225.28 0-409.6 184.32-409.6 409.6s184.32 409.6 409.6 409.6c225.28 0 409.6-184.32 409.6-409.6s-184.32-409.6-409.6-409.6z" />
<glyph unicode="&#xe916;" glyph-name="ic-sort-by-alpha" d="M228.119 736.95l-228.119-577.901h91.248l45.624 121.664h258.535l45.624-121.664h91.248l-223.049 577.901zM172.356 366.891l96.317 263.604 96.317-263.604zM714.772 240.158h309.228v-81.109h-430.891v65.901l299.089 435.96h-299.089v76.040h420.752v-65.901c5.069 5.069-299.089-430.891-299.089-430.891z" />
<glyph unicode="&#xe917;" glyph-name="inbox" d="M1023.263 301.604l-166.034 570.659c-2.781 8.556-10.684 14.631-20.005 14.631-0.116 0-0.231-0.001-0.345-0.003h-649.782c-0.097 0.001-0.213 0.003-0.328 0.003-9.321 0-17.224-6.076-19.963-14.483l-0.041-0.148-166.033-570.659c-0.465-1.521-0.732-3.271-0.732-5.081 0-0.065 0-0.129 0.001-0.195v0.009-267.409c0-10.972 9.436-19.821 21.065-19.821h981.867c11.629 0 21.065 8.851 21.065 19.821v267.409c0 0.055 0.001 0.12 0.001 0.185 0 1.811-0.268 3.559-0.765 5.208l0.033-0.128zM774.14 804.021l125.732-427.079h-208.384c-0.177 0.005-0.384 0.008-0.593 0.008-11.108 0-20.151-8.844-20.471-19.873l-0.001-0.029v-190.317h-316.854v190.317c-0.321 11.060-9.364 19.904-20.472 19.904-0.208 0-0.416-0.003-0.624-0.009l0.031 0.001h-208.384l125.732 427.079z" />
<glyph unicode="&#xe918;" glyph-name="minus" d="M903.51 569.924h-783.087c-66.219 0-120.423-55.637-120.423-121.924s54.204-121.924 120.423-121.924h269.653c549.259 0-283.808 0 243.848 0h269.585c66.287 0 120.491 55.637 120.491 121.924s-54.204 121.924-120.491 121.924z" />
<glyph unicode="&#xe919;" glyph-name="models" d="M984.592 802.075l-459.642 156.384c-4.243 0.98-9.115 1.541-14.117 1.541s-9.875-0.561-14.555-1.625l0.439 0.084-459.789-156.603c-37.451-11.484-36.427-41.035-36.427-41.912v-601.69c0-17.408 10.899-32.769 28.233-39.279l467.981-180.814c4.579-1.372 9.841-2.161 15.287-2.161s10.708 0.789 15.677 2.26l-0.391-0.099 467.981 180.668c16.443 5.797 28.051 21.123 28.233 39.184v601.932c-0.079 22.132-17.093 40.265-38.756 42.12l-0.157 0.011zM512.002 873.317l343.927-115.423-343.927-131.003-343.927 131.003zM85.421 188.608v508.065l383.061-146.143v-510.113zM938.584 188.608l-383.061-148.192v508.869l383.061 147.387z" />
<glyph unicode="&#xe91a;" glyph-name="my-task" d="M915.865-63.999h-807.796c-0.101-0.001-0.223-0.001-0.343-0.001-21.817 0-39.521 17.609-39.675 39.389v945.14c0 21.784 17.96 39.471 40.017 39.471h807.796c22.125 0 40.085-17.619 40.085-39.471v-945.125c0-21.852-17.96-39.403-40.085-39.403zM875.78 881.058h-727.624v-866.182h727.624zM407.519 565.697h-146.55v144.296h146.55zM389.697 668.2l-9.356 9.356c-0.832 0.797-1.964 1.288-3.209 1.288s-2.377-0.491-3.211-1.289l0.001 0.001-52.377-51.559-26.975 26.701c-0.807 0.825-1.932 1.337-3.176 1.337s-2.369-0.512-3.175-1.336l-0.001-0.001-9.492-9.219c-0.784-0.8-1.269-1.897-1.269-3.107s0.484-2.307 1.269-3.108l-0.001 0.001 39.676-39.267c0.8-0.784 1.897-1.269 3.107-1.269s2.307 0.484 3.108 1.269l-0.001-0.001 65.080 64.056c0.852 0.755 1.387 1.851 1.387 3.073s-0.535 2.319-1.383 3.069l-0.004 0.004zM407.519 377.628h-146.55v144.227h146.55zM389.697 480.267l-9.356 9.219c-0.832 0.797-1.964 1.288-3.209 1.288s-2.377-0.491-3.211-1.289l0.001 0.001-52.377-51.559-26.975 26.701c-0.821 0.793-1.941 1.281-3.176 1.281s-2.353-0.488-3.177-1.283l0.001 0.001-9.492-9.287c-0.797-0.781-1.291-1.869-1.291-3.073s0.495-2.292 1.291-3.072l0.001-0.001 39.676-39.199c0.784-0.819 1.887-1.327 3.107-1.327s2.323 0.508 3.105 1.325l0.001 0.001 65.080 63.987c0.859 0.777 1.395 1.897 1.395 3.141s-0.537 2.364-1.392 3.139l-0.004 0.003zM407.519 185.393h-146.55v144.227h146.55zM773.482 598.135h-335.3v79.352h335.3zM773.482 410.135h-335.3v79.284h335.3zM773.482 217.83h-335.3v79.284h335.3z" />
<glyph unicode="&#xe91b;" glyph-name="notification" d="M981.486 43.362c-4.047-7.328-11.727-12.209-20.547-12.209-0.004 0-0.008 0-0.012 0h-300.819c-27.017-56.084-82.944-95.153-148.087-95.153s-121.147 39.069-148.087 95.153h-300.899c-8.829 0.048-16.504 4.948-20.497 12.167l-0.061 0.121c-1.932 3.429-3.069 7.528-3.069 11.893 0 4.589 1.257 8.884 3.447 12.559l-0.063-0.113 81.132 138.319c35.991 60.509 57.265 133.415 57.265 211.288 0 0.045 0 0.091 0 0.136v-0.007 121.147c0 152.97 99.8 282.31 236.308 324.057v0.631c0 53.327 42.377 96.649 94.523 96.649 52.067 0 94.523-43.323 94.523-96.649v-0.631c136.428-41.748 236.308-171.087 236.308-324.057v-121.147c0-0.113 0-0.249 0-0.384 0-77.788 21.275-150.607 58.324-212.956l-1.059 1.924 81.132-138.319c2.103-3.56 3.344-7.845 3.344-12.42 0-4.404-1.152-8.54-3.169-12.123l0.064 0.124z" />
<glyph unicode="&#xe91c;" glyph-name="notification-templates" d="M512-64c53.824 0 97.856 46.080 97.856 102.4h-195.712c0-56.32 44.032-102.4 97.856-102.4zM830.080 243.2v281.6c0 158.72-102.72 286.72-244.672 322.56v35.84c0 40.96-34.24 76.8-73.408 76.8s-73.408-35.84-73.408-76.8v-35.84c-141.952-35.84-244.736-163.84-244.736-322.56v-281.6l-97.856-102.4v-51.2h832v51.2zM732.224 192h-440.448v332.8c0 128 97.856 230.4 220.224 230.4s220.224-102.4 220.224-230.4z" />
<glyph unicode="&#xe91d;" glyph-name="organizations" d="M1021.411 593.070c-11.458-55.080-59.594-95.874-117.258-95.874-8.6 0-16.988 0.908-25.073 2.632l0.783-0.14c-54.806 12.204-95.171 60.411-95.171 118.046 0 8.752 0.93 17.288 2.699 25.512l-0.143-0.793c11.508 55.054 59.643 95.814 117.297 95.814 8.608 0 17.005-0.908 25.097-2.636l-0.785 0.14c54.777-12.111 95.143-60.258 95.143-117.833 0-8.807-0.944-17.393-2.738-25.661l0.144 0.795zM928.604 444.541c41.741-9.399 72.453-46.155 72.453-90.085 0-6.656-0.705-13.147-2.044-19.403l0.109 0.606-28.053-134.821c-8.796-41.949-45.482-73-89.422-73-6.458 0-12.759 0.67-18.838 1.946l0.595-0.105-36.443 7.686c-55.53-81.341-175.365-138.217-315.055-138.217-91.333 0-177.414 23.762-242.615 66.803-29.009 19.049-53.244 42.793-72.255 70.412l-0.568 0.873-35.866-7.557c-5.488-1.172-11.794-1.842-18.256-1.842-43.953 0-80.653 31.047-89.369 72.406l-0.105 0.596-27.989 134.821c-1.231 5.651-1.936 12.142-1.936 18.799 0 43.929 30.713 80.685 71.836 89.968l0.617 0.118 111.508 23.377c5.418 1.151 11.643 1.812 18.022 1.812 32.382 0 60.794-16.995 76.804-42.551l0.221-0.379c19.47 10.056 40.030 18.766 61.934 25.747v67.251c0 50.534 40.927 91.909 91.141 91.909h113.878c50.022 0 91.077-41.376 91.013-91.909v-67.379c22.097-7.173 42.656-15.949 61.934-26.003 16.206 26.146 44.745 43.299 77.288 43.299 6.354 0 12.555-0.653 18.54-1.898l-0.588 0.102zM568.909 290.057h-113.878c-50.413 0.362-91.141 41.314-91.141 91.779 0 0.024 0 0.046 0 0.070v-0.004 22.16c-18.168-6.644-33.436-13.677-48.043-21.76l1.736 0.881 25.107-121.244c1.203-5.588 1.893-12.006 1.893-18.587 0-43.96-30.754-80.737-71.922-89.987l-0.616-0.116-25.812-5.508c13.065-15.435 28.373-30.231 48.101-43.232 57.708-38.365 135.079-59.308 217.573-59.308 115.607 0 215.074 41.823 266.057 102.542l-26.068 5.508c-41.783 9.366-72.537 46.144-72.537 90.103 0 6.581 0.69 13 1.999 19.19l-0.106-0.603 25.3 121.692c-12.889 7.078-28.268 14.050-44.189 19.904l-2.438 0.785v-22.416c0-50.471-40.991-91.845-91.013-91.845zM510.048 655.71c-66.096 0.255-119.579 53.894-119.579 120.025 0 0.18 0 0.361 0.001 0.541v-0.028c0 66.674 53.48 120.603 119.578 120.603s119.579-53.929 119.579-120.539c0-66.61-53.48-120.603-119.579-120.603zM144.076 499.688c-7.294-1.582-15.675-2.487-24.266-2.487-57.673 0-105.81 40.829-117.083 95.159l-0.134 0.775c-1.648 7.475-2.592 16.061-2.592 24.866 0 57.575 40.366 105.722 94.342 117.685l0.802 0.15c7.29 1.577 15.665 2.48 24.25 2.48 57.685 0 105.845-40.78 117.223-95.084l0.137-0.779c1.616-7.412 2.542-15.925 2.542-24.656 0-57.664-40.385-105.897-94.415-117.958l-0.804-0.151z" />
<glyph unicode="&#xe91e;" glyph-name="participant" d="M512.001 960c-56.555 0-102.4-45.845-102.4-102.4s45.845-102.4 102.4-102.4c56.531 0.056 102.344 45.869 102.4 102.4 0 56.555-45.845 102.4-102.4 102.4zM512.001 789.333c-37.703 0-68.267 30.564-68.267 68.267s30.564 68.267 68.267 68.267c37.703 0 68.267-30.564 68.267-68.267s-30.564-68.267-68.267-68.267zM580.267 738.133h-4.028l-3.601-1.792c-38.189-19.015-83.087-19.015-121.276 0l-3.601 1.792h-4.028c-47.104-0.056-85.277-38.229-85.333-85.333v-102.4c0-28.277 22.923-51.2 51.2-51.2h204.8c28.277 0 51.2 22.923 51.2 51.2v102.4c-0.056 47.104-38.229 85.277-85.333 85.333zM631.467 550.4c0-9.425-7.641-17.067-17.067-17.067h-204.8c-9.425 0-17.067 7.641-17.067 17.067v102.4c0.004 26.863 20.768 49.156 47.565 51.064 45.6-21.163 98.205-21.163 143.804 0 26.795-1.907 47.56-24.2 47.565-51.064zM870.401 396.8c-56.555 0-102.4-45.845-102.4-102.4s45.845-102.4 102.4-102.4c56.555 0 102.4 45.845 102.4 102.4-0.056 56.531-45.869 102.344-102.4 102.4zM870.401 226.133c-37.703 0-68.267 30.564-68.267 68.267s30.564 68.267 68.267 68.267c37.703 0 68.267-30.564 68.267-68.267s-30.564-68.267-68.267-68.267zM938.667 174.933h-4.028l-3.601-1.707c-38.189-19.012-83.087-19.012-121.276 0l-3.601 1.707h-4.028c-47.104-0.056-85.277-38.229-85.333-85.333v-102.4c0-28.277 22.923-51.2 51.2-51.2h204.8c28.277 0 51.2 22.923 51.2 51.2v102.4c-0.056 47.104-38.229 85.277-85.333 85.333zM989.867-12.8c0-9.425-7.641-17.067-17.067-17.067h-204.8c-9.425 0-17.067 7.641-17.067 17.067v102.4c0.004 26.863 20.768 49.156 47.565 51.064 45.6-21.163 98.204-21.163 143.804 0 26.797-1.907 47.56-24.2 47.565-51.064zM153.601 396.8c-56.555 0-102.4-45.845-102.4-102.4s45.845-102.4 102.4-102.4c56.555 0 102.4 45.845 102.4 102.4-0.056 56.531-45.869 102.344-102.4 102.4zM153.601 226.133c-37.703 0-68.267 30.564-68.267 68.267s30.564 68.267 68.267 68.267c37.703 0 68.267-30.564 68.267-68.267s-30.564-68.267-68.267-68.267zM221.867 174.933h-4.028l-3.601-1.707c-38.189-19.012-83.087-19.012-121.276 0l-3.601 1.707h-4.028c-47.104-0.056-85.277-38.229-85.333-85.333v-102.4c0-28.277 22.923-51.2 51.2-51.2h204.8c28.277 0 51.2 22.923 51.2 51.2v102.4c-0.056 47.104-38.229 85.277-85.333 85.333zM273.067-12.8c0-9.425-7.641-17.067-17.067-17.067h-204.8c-9.425 0-17.067 7.641-17.067 17.067v102.4c0.004 26.863 20.768 49.156 47.565 51.064 45.6-21.163 98.204-21.163 143.804 0 26.797-1.907 47.56-24.2 47.565-51.064zM681.327 93.277c-0.008 0.019-0.017 0.039-0.025 0.060-3.695 8.672-13.72 12.707-22.389 9.011 0 0 0 0 0 0-77.067-32.299-162.656-38.191-243.421-16.76l15.975 4.693c9.049 2.649 14.237 12.131 11.588 21.18s-12.131 14.237-21.18 11.588l-68.267-20.019c-0.256 0-0.444-0.291-0.683-0.376-1.581-0.589-3.065-1.412-4.403-2.44-0.593-0.32-1.163-0.679-1.707-1.075-1.8-1.607-3.228-3.587-4.181-5.803-0.925-2.232-1.368-4.633-1.297-7.048 0.416-2.311 0.985-4.591 1.707-6.827 0.103-0.239 0-0.512 0.188-0.751l34.133-65.315c4.365-8.36 14.68-11.601 23.040-7.236s11.601 14.68 7.236 23.040l-13.892 26.556c91.763-27.584 190.283-22.223 278.511 15.155 8.679 3.672 12.74 13.685 9.069 22.365zM967.801 511.265c-6.664 6.663-17.468 6.663-24.132 0l-24.149-24.149c-14.131 149.483-109.037 279.203-247.228 337.92-8.672 3.695-18.696-0.339-22.392-9.011s0.339-18.696 9.011-22.392c123.968-52.687 210.141-167.827 225.741-301.619l-19.251 19.251c-6.78 6.549-17.583 6.361-24.132-0.419-6.387-6.613-6.387-17.099 0-23.715l51.2-51.2c6.656-6.673 17.464-6.688 24.136-0.029 0.011 0.011 0.021 0.021 0.029 0.029l51.2 51.2c6.653 6.673 6.639 17.476-0.035 24.132zM374.973 812.22c-0.056 0.996-0.203 1.984-0.444 2.952 0 0.153-0.188 0.256-0.256 0.427s0 0.291 0 0.427c-0.465 0.829-1.003 1.619-1.604 2.355-0.552 1-1.205 1.944-1.945 2.816-1.009 0.893-2.127 1.656-3.328 2.269-0.6 0.509-1.24 0.973-1.912 1.383l-68.267 31.181c-8.719 3.58-18.691-0.587-22.269-9.305-3.385-8.245 0.145-17.709 8.104-21.721l35.345-16.163c-133.063-71.213-216.092-209.92-215.996-360.84 0-9.425 7.641-17.067 17.067-17.067s17.067 7.641 17.067 17.067c-0.085 132.892 70.189 255.897 184.712 323.311l-12.339-25.788c-4.068-8.484-0.504-18.66 7.971-22.749 2.301-1.124 4.828-1.709 7.389-1.707 6.553 0.008 12.523 3.769 15.36 9.677l34.133 71.219c0 0.171 0 0.359 0.136 0.529 0.444 1.167 0.753 2.381 0.921 3.619 0.292 0.92 0.509 1.86 0.648 2.816-0.057 1.112-0.221 2.215-0.495 3.293z" />
<glyph unicode="&#xe91f;" glyph-name="payments" d="M681.919 489.983h26.488c50.995 0 92.433-41.233 92.433-91.955v-16.043c0-43.008-29.696-79.257-69.7-89.361v-6.827c0.021-0.492 0.035-1.069 0.035-1.649 0-22.019-17.849-39.868-39.868-39.868s-39.868 17.849-39.868 39.868c0 0.58 0.012 1.157 0.037 1.731l-0.003-0.081v3.96h-23.961c-21.989 0.039-39.8 17.873-39.8 39.868 0 0.048 0 0.096 0 0.144v-0.008c0 22.119 17.817 40.004 39.8 40.004h80.896c7.304 0 12.765 5.256 12.765 12.22v16.043c0 6.827-5.461 11.947-12.765 11.947h-26.488c-51.081 0.501-92.299 42.027-92.299 93.18 0 0.217 0.001 0.435 0.003 0.652v-0.033 1.707c0 40.209 25.873 74.479 61.849 87.108v11.196c0 22.051 17.817 40.004 39.8 40.004 22.051 0 39.868-17.955 39.868-40.004v-6.008c22.093 0 40.004-17.911 40.004-40.004s-17.911-40.004-40.004-40.004h-49.22c-0.123 0.004-0.267 0.007-0.411 0.007-6.711 0-12.152-5.44-12.152-12.152 0-0.051 0-0.101 0.001-0.151v0.008-1.707c0-7.304 5.871-13.789 12.561-13.789zM995.536 310.442c-6.377-14.043-20.279-23.632-36.42-23.632-22.025 0-39.88 17.855-39.88 39.88 0 5.884 1.275 11.469 3.561 16.497l-0.101-0.249c14.336 32.427 21.64 67.037 21.64 102.809 0 0.061 0 0.133 0 0.205 0 139.915-113.209 253.388-253.024 253.815h-0.041c-139.469 0-252.996-113.937-252.996-254.020 0-0.041 0-0.089 0-0.137 0-139.891 113.171-253.348 252.952-253.815h0.044c41.301 0 82.329 10.172 118.511 29.491 5.411 2.94 11.847 4.669 18.687 4.669 15.188 0 28.385-8.521 35.071-21.044l0.104-0.213c2.928-5.428 4.648-11.88 4.648-18.733 0-15.211-8.473-28.441-20.959-35.229l-0.211-0.105c-41.081-22.303-89.605-36.296-141.184-38.48l-0.675-0.023v-16.111c0-0.020 0-0.045 0-0.069 0-88.145-71.3-159.637-159.373-159.948h-386.487c-88.093 0.272-159.403 71.748-159.403 159.88 0 0.048 0 0.096 0 0.145v-0.008 703.965c0 0.041 0 0.089 0 0.137 0 88.132 71.309 159.608 159.377 159.88h386.483c88.093-0.272 159.403-71.748 159.403-159.88 0-0.048 0-0.096 0-0.145v0.008-20.548c176.947-7.373 318.737-154.215 318.737-333.688 0-47.036-9.557-92.569-28.467-135.304zM625.531 799.983c0 0.040 0 0.089 0 0.137 0 44.040-35.644 79.755-79.656 79.872h-386.468c-44.053-0.077-79.736-35.808-79.736-79.872 0-0.048 0-0.096 0-0.144v0.008-703.965c0-44.1 35.772-80.008 79.736-80.008h386.457c44.024 0.116 79.667 35.832 79.667 79.872 0 0.048 0 0.096 0 0.144v-0.008 22.323c-153.556 32.263-267.193 166.581-267.193 327.441s113.637 295.179 265.013 327.057l2.179 0.384zM392.468 737.791h-79.736c-21.989 0.039-39.8 17.873-39.8 39.868 0 0.048 0 0.096 0 0.144v-0.008c0 22.051 17.817 40.004 39.8 40.004h79.736c22.093 0 40.004-17.911 40.004-40.004s-17.911-40.004-40.004-40.004v0zM352.6 157.798c22.093 0 40.004-17.911 40.004-40.004s-17.911-40.004-40.004-40.004v0c-22.093 0-40.004 17.911-40.004 40.004s17.911 40.004 40.004 40.004v0z" />
<glyph unicode="&#xe920;" glyph-name="plugin" d="M948.369 836.172h-467.464c-41.702 0-75.633-33.928-75.633-75.633v-467.463c0-41.702 33.928-75.633 75.633-75.633h467.464c41.702 0 75.633 33.928 75.633 75.633v467.463c0 41.702-33.928 75.633-75.633 75.633zM983.205 293.078c0-19.208-15.628-34.834-34.834-34.834h-467.467c-19.21 0-34.834 15.628-34.834 34.834v467.463c0 19.208 15.628 34.834 34.834 34.834h467.464c19.21 0 34.834-15.628 34.834-34.834v-467.463zM714.637 729.074c-111.528 0-202.264-90.735-202.264-202.264s90.735-202.264 202.264-202.264c111.531 0 202.264 90.732 202.264 202.264s-90.735 202.264-202.264 202.264zM714.637 365.342c-82.12 0-150.070 61.638-160.134 141.070h6.558c11.266 0 20.398 9.134 20.398 20.398s-9.132 20.398-20.398 20.398h-6.558c10.064 79.432 78.015 141.070 160.134 141.070s150.069-61.638 160.134-141.070h-6.558c-11.266 0-20.398-9.134-20.398-20.398s9.132-20.398 20.398-20.398h6.558c-10.064-79.434-78.012-141.070-160.134-141.070zM663.11 574.485c-11.266 0-20.398-9.134-20.398-20.398v-54.56c0-11.264 9.132-20.398 20.398-20.398s20.398 9.134 20.398 20.398v54.56c0 11.264-9.132 20.398-20.398 20.398zM766.167 574.485c-11.266 0-20.398-9.134-20.398-20.398v-54.56c0-11.264 9.132-20.398 20.398-20.398s20.398 9.134 20.398 20.398v54.56c0 11.264-9.132 20.398-20.398 20.398zM999.561 100.625h-22.226c-11.266 0-20.398-9.134-20.398-20.398s9.132-20.398 20.398-20.398h22.226c11.266 0 20.398 9.134 20.398 20.398 0.002 11.262-9.132 20.398-20.398 20.398zM880.337 100.625h-531.117c-81.42 0-147.66 66.24-147.66 147.66v68.812c85.383 7.164 152.682 78.897 152.682 166.098v137.154c0 27.764-22.59 50.356-50.356 50.356h-41.364v114.952c0 11.264-9.132 20.398-20.398 20.398s-20.398-9.134-20.398-20.398v-114.954h-89.211v114.954c0 11.264-9.132 20.398-20.398 20.398s-20.398-9.134-20.398-20.398v-114.954h-41.364c-27.766 0.002-50.356-22.588-50.356-50.354v-137.154c0-89.934 71.586-163.422 160.767-166.582v-68.328c0-103.914 84.543-188.457 188.457-188.457h531.117c11.266 0 20.398 9.134 20.398 20.398 0 11.262-9.134 20.398-20.4 20.398zM166.732 357.26c-69.441 0-125.937 56.494-125.937 125.937v137.154c0 5.27 4.288 9.558 9.558 9.558h253.536c5.268 0 9.558-4.288 9.558-9.558v-137.154c0-69.442-56.496-125.937-125.937-125.937z" />
<glyph unicode="&#xe921;" glyph-name="plugin1" d="M903.122 738.388h-191.045v175.761c0 30.567-22.925 45.851-45.851 45.851-30.567 0-45.851-22.925-45.851-45.851v-175.761h-206.328v175.761c0 30.567-22.925 45.851-45.851 45.851-30.567 0-45.851-22.925-45.851-45.851v-175.761h-198.687c-30.567 0-45.851-22.925-45.851-45.851 0-30.567 22.925-45.851 45.851-45.851h22.925c15.284-198.687 152.836-351.522 320.955-382.089v-282.746c0-30.567 22.925-45.851 45.851-45.851 30.567 0 45.851 22.925 45.851 45.851v282.746c168.119 30.567 298.030 183.403 313.313 382.089h22.925c30.567 0 45.851 22.925 45.851 45.851 15.284 22.925-7.642 45.851-38.209 45.851zM513.391 356.299c0 0 0 0 0 0s0 0 0 0c-137.552 0-252.179 129.91-275.104 290.388h542.567c-15.284-168.119-129.91-290.388-267.463-290.388z" />
<glyph unicode="&#xe922;" glyph-name="portfolio" d="M109.714-64v1024h804.572v-1024zM850.724 900.023h-677.523v-904.045h677.523zM760.466 355.035h-496.932v59.977h496.932zM760.466 227.035h-496.932v59.977h496.932zM760.466 99.035h-496.932v59.977h496.932zM624.932 540.964h135.46v-59.977h-135.46zM624.932 668.964h135.46v-59.977h-135.46zM624.932 794.989h135.46v-59.977h-135.46zM264.046 510.976c0 50.176 27.868 94.281 69.779 119.223-16.467 17.277-26.64 40.681-26.771 66.461v0.025c0 55.296 47.689 100.279 106.276 100.279s106.204-44.983 106.204-100.279c0-25.527-10.093-48.713-26.697-66.487 41.837-24.941 69.705-69.047 69.705-119.223v-29.988h-298.496zM413.33 736.987c-23.552 0-42.716-18.067-42.716-40.301s19.164-40.375 42.716-40.375c23.552 0 42.716 18.067 42.716 40.375 0 22.236-19.164 40.301-42.716 40.301zM492.983 540.964c-13.752 30.297-43.74 50.988-78.56 50.988-0.384 0-0.767-0.003-1.151-0.008h0.059c-36.060 0-66.999-21.139-79.652-50.98z" />
<glyph unicode="&#xe923;" glyph-name="preview" d="M924.444 960h-824.888c-56.889 0-99.556-42.667-99.556-99.556v-824.888c0-56.889 42.667-99.556 99.556-99.556h824.888c56.889 0 99.556 42.667 99.556 99.556v824.888c0 56.889-42.667 99.556-99.556 99.556zM924.444 14.224h-824.888c-7.111 0-14.223 7.111-14.223 14.223v831.999c0 7.111 7.111 14.223 14.223 14.223h824.888c7.111 0 14.223-7.111 14.223-14.223v-824.888c7.111-7.111-7.111-21.333-14.223-21.333zM760.888 526.224h-177.777l-113.777 170.666c-7.111 0-14.223 7.111-28.444 7.111h-177.777c-14.223 0-35.556-14.223-35.556-35.556v-270.222c0-14.223 14.223-35.556 35.556-35.556h170.666l113.777-170.666c7.111-14.223 14.223-14.223 28.444-14.223h184.889c14.223 0 35.556 14.223 35.556 35.556v277.333c-7.111 21.333-21.333 35.556-35.556 35.556zM696.888 256.001h-92.444v120.889zM725.332 462.224v-135.11l-99.556 135.11zM547.555 469.334v-149.333l-71.111 106.667v149.333zM391.111 440.89h-99.556v135.11zM412.444 647.113v-128l-85.333 128z" />
<glyph unicode="&#xe924;" glyph-name="process-views" d="M976.030 124.811h-0.081l-176.833-179.988c-5.311-5.419-12.696-8.789-20.868-8.823h-650.404c-48.969 0.533-88.46 40.353-88.46 89.399 0 0.223 0.001 0.447 0.003 0.669v-0.035 844.012c0 49.624 39.7 89.955 88.457 89.955h768.315c48.759 0 88.457-40.329 88.457-89.955v-724.047c-0.032-8.235-3.299-15.701-8.595-21.199l0.009 0.009zM807.779 38.481l76.169 77.509h-76.169zM925.618 870.047c0 16.541-13.155 29.932-29.46 29.932h-768.315c-16.343-0.133-29.539-13.412-29.539-29.773 0-0.056 0-0.112 0-0.167v0.008-844.012c0-16.541 13.233-30.011 29.539-30.011h620.937v149.976c0 16.541 13.233 30.011 29.46 30.011h147.377zM719.32 298.025c-0.008 0-0.017 0-0.027 0-8.161 0-15.54 3.345-20.843 8.739l-0.004 0.004c-5.343 5.473-8.637 12.967-8.637 21.228s3.296 15.755 8.644 21.235l-0.005-0.007 8.664 8.823h-199.208c-12.131-34.973-44.899-60.023-83.337-60.023s-71.208 25.048-83.416 60.023h-5.041c-64.984 0-117.917 53.8-117.917 119.965s52.933 119.965 117.917 119.965h181.957c12.131 34.973 44.899 60.023 83.337 60.023s71.207-25.048 83.337-60.023h5.12c32.617 0.355 58.921 26.879 58.921 59.547 0 0.167-0.001 0.335-0.003 0.501v-0.025c0.001 0.141 0.001 0.308 0.001 0.476 0 32.668-26.304 59.191-58.888 59.545h-299.908c-12.131-34.895-44.899-60.023-83.337-60.023-48.969 0.533-88.46 40.353-88.46 89.399 0 0.223 0.001 0.447 0.003 0.669v-0.035c0 49.624 39.7 89.955 88.457 89.955 38.44 0 71.208-25.048 83.337-59.944h299.875c64.984 0 117.917-53.879 117.917-120.044s-52.933-119.965-117.917-119.965h-5.12c-12.131-34.895-44.899-60.023-83.337-60.023s-71.208 25.128-83.337 60.023h-181.957c-32.617-0.355-58.921-26.879-58.921-59.547 0-0.167 0.001-0.335 0.003-0.501v0.025c0-33.083 26.388-60.023 58.92-60.023h5.041c12.252 35.036 44.913 59.767 83.385 60.021h0.031c38.44 0 71.208-25.048 83.337-60.023h199.208l-8.664 8.823c-5.337 5.461-8.631 12.94-8.631 21.189s3.293 15.728 8.636 21.195l-0.005-0.005c5.299 5.435 12.693 8.805 20.873 8.805s15.575-3.371 20.868-8.799l0.005-0.007 58.92-59.944c5.343-5.473 8.637-12.967 8.637-21.228s-3.296-15.755-8.644-21.235l0.005 0.007-58.92-60.023c-5.321-5.391-12.707-8.732-20.872-8.744h-0.003zM306.648 778.045c-16.308-0.177-29.46-13.44-29.46-29.773 0-0.084 0-0.167 0.001-0.251v0.013c0-16.541 13.155-30.011 29.46-30.011 16.308 0.177 29.46 13.44 29.46 29.773 0 0.084 0 0.167-0.001 0.251v-0.013c0 0.071 0.001 0.155 0.001 0.237 0 16.333-13.152 29.596-29.444 29.773h-0.017zM601.403 538.034c16.308 0.177 29.46 13.44 29.46 29.773 0 0.056 0 0.112 0 0.168v-0.008c0 0.071 0.001 0.155 0.001 0.237 0 16.333-13.152 29.596-29.444 29.773h-0.017c-16.308-0.177-29.461-13.44-29.461-29.773 0-0.084 0-0.167 0.001-0.251v0.013c0-16.463 13.233-29.932 29.46-29.932zM424.567 417.99c-16.308-0.177-29.46-13.44-29.46-29.773 0-0.084 0-0.167 0.001-0.251v0.013c0-16.463 13.155-29.932 29.46-29.932 16.308 0.177 29.46 13.44 29.46 29.773 0 0.056 0 0.112 0 0.168v-0.008c0 0.071 0.001 0.155 0.001 0.237 0 16.333-13.152 29.596-29.444 29.773h-0.017zM247.651 236.033h117.917c16.305 0 29.539-13.469 29.539-30.011s-13.233-30.011-29.539-30.011h-117.917c-16.308 0.177-29.46 13.44-29.46 29.773 0 0.084 0 0.167 0.001 0.251v-0.013c0 16.541 13.233 30.011 29.46 30.011zM247.651 115.989h235.835c16.305 0 29.46-13.391 29.46-30.011 0-16.541-13.155-29.932-29.46-29.932h-235.835c-16.299 0.133-29.46 13.377-29.46 29.695 0 0.084 0 0.167 0.001 0.251v-0.013c0 16.62 13.233 30.011 29.46 30.011z" />
<glyph unicode="&#xe925;" glyph-name="publish" d="M640.654 709.416c110.457 0 191.459-88.365 191.459-191.459 0 0 0-7.364 0-14.728v-44.183l44.183-14.728c66.275-22.092 103.093-95.729 81.003-169.368-14.728-51.547-66.275-88.365-117.821-88.365h-648.017c-73.639 0-132.55 58.911-132.55 132.55s58.911 125.186 125.186 132.55c0 0 7.364 0 7.364 0h51.547l14.728 44.183c14.728 51.547 66.275 88.365 117.821 88.365 7.364 0 14.728 0 22.092 0l44.183-7.364 22.092 36.819c44.183 51.547 110.457 95.729 176.732 95.729zM640.654 775.691c-95.729 0-176.732-51.547-220.915-132.55-7.364 0-22.092 0-36.819 0-81.003 0-154.64-51.547-184.096-132.55 0 0-7.364 0-14.728 0-103.093 0-184.096-88.365-184.096-198.823 0-103.093 88.365-191.459 191.459-191.459h640.653c110.457 0 198.823 88.365 191.459 198.823 0 81.003-51.547 154.64-132.55 184.096 0 0 0 7.364 0 14.728 7.364 139.912-103.093 257.734-250.37 257.734zM515.468 326.497l-103.093 58.911 14.728 29.455 81.003-44.183 132.55 176.732 29.455-22.092z" />
<glyph unicode="&#xe926;" glyph-name="references" d="M1017.504 658.225c-15.18-37.407-30.78-98.847-100.775-98.847h-151.553c12.407-33.132 19.588-71.419 19.588-111.384 0-3.259-0.048-6.507-0.143-9.744l0.011 0.475c-4.879-174.805-147.579-316.179-324.852-321.841-179.503-5.783-326.057 126.736-345.092 293.289h-76.319c-0.089-0.001-0.196-0.001-0.301-0.001-20.941 0-37.932 16.908-38.068 37.816v0.013c0 20.901 17.167 37.828 38.371 37.828h76.319c19.456 167.336 165.889 293.469 337.261 293.469h482.369c63.308 0 106.739-63.127 83.185-121.075zM934.317 703.644h-482.369c-145.289 0-263.231-115.352-262.689-256.665 0.603-142.397 120.291-259.195 267.989-254.436 136.796 4.337 246.847 113.424 250.641 248.292 0.065 2.14 0.103 4.659 0.103 7.184 0 47.996-13.436 92.853-36.751 131.017l0.627-1.105c-3.291 5.499-5.236 12.131-5.236 19.217 0 20.925 16.963 37.888 37.888 37.888 0.147 0 0.293-0.001 0.439-0.003h211.767c0.017 0 0.039 0 0.060 0 5.327 0 9.895 3.245 11.835 7.867l0.032 0.084 17.589 43.369c0.557 1.375 0.881 2.969 0.881 4.639 0 6.987-5.664 12.649-12.649 12.649-0.056 0-0.112 0-0.167-0.001h0.008zM448.635 260.969c-104.629 0-189.743 83.909-189.743 187.032s85.113 187.032 189.743 187.032c104.629 0 189.743-83.909 189.743-187.032s-85.113-187.032-189.743-187.032zM448.635 559.378c-62.284 0-113.003-49.996-113.003-111.376s50.719-111.316 113.003-111.316c62.284 0 112.943 49.936 112.943 111.316s-50.659 111.376-112.943 111.376z" />
<glyph unicode="&#xe927;" glyph-name="reports" d="M109.714-64v1024h543.086l261.486-264.558v-759.442zM675.913 823.662v-104.887h103.57zM835.291 638.903h-198.875c-21.81 0.166-39.424 17.882-39.424 39.717 0 0.077 0 0.154 0 0.232v-0.012 201.289h-408.357v-864.256h646.656zM560.566 382.976l112.713 114.103h-29.184v53.248h119.003v-120.393h-52.663v29.477l-149.87-151.698-88.137 89.161-157.623-159.525-37.23 37.669 194.853 197.193zM738.303 113.299h-452.608v53.248h452.608zM285.695 666.624h268.654v-53.248h-268.654zM285.695 782.775h268.654v-53.248h-268.654z" />
<glyph unicode="&#xe928;" glyph-name="reset-password" d="M868.751 769.482c-85.293 85.293-196.827 131.216-321.481 131.216-118.095 0-236.189-52.485-321.481-137.778-6.561-6.561-6.561-26.242 0-32.803s26.242-6.561 32.803 0c78.731 78.731 183.704 118.095 288.677 118.095 223.068 0 400.212-177.144 400.212-400.212s-183.704-400.212-400.212-400.212c-216.509 0-400.212 177.144-400.212 400.212v6.561l39.364-39.364c6.561-6.561 13.121-6.561 19.682-6.561s13.121 0 19.682 6.561c6.561 6.561 6.561 26.242 0 32.803l-85.293 78.731c-13.121 13.121-26.242 13.121-32.803 0l-85.293-78.731c-6.561-6.561-6.561-26.242 0-32.803s13.121-6.561 19.682-6.561c6.561 0 13.121 0 19.682 6.561l39.364 39.364v-6.561c0-118.095 45.924-236.189 131.216-321.481s196.827-131.216 321.481-131.216c124.655 0 236.189 45.924 321.481 131.216s131.216 196.827 131.216 321.481c0 124.655-52.485 236.189-137.778 321.481zM547.27 671.068c-65.61 0-124.655-52.485-124.655-124.655v-59.049h-32.803c-13.121 0-19.682-13.121-19.682-19.682v-203.388c0-13.121 13.121-19.682 19.682-19.682h314.921c13.121 0 19.682 13.121 19.682 19.682v209.948c0 13.121-13.121 19.682-19.682 19.682h-39.364v52.485c6.561 72.17-52.485 124.655-118.095 124.655zM468.54 546.413c0 45.924 32.803 78.731 78.731 78.731s78.731-32.803 78.731-78.731v-59.049h-157.458zM685.048 448.001v-164.019h-275.554v164.019z" />
<glyph unicode="&#xe929;" glyph-name="reset" d="M672.628 277.333l-40.157-40.157c-6.693-6.693-13.385-6.693-20.079-6.693s-13.385 0-20.079 6.693l-80.313 87.007-80.313-80.313c-6.693-6.693-13.385-6.693-20.079-6.693s-13.385 0-20.079 6.693l-40.157 40.157c-6.693 6.693-6.693 13.385-6.693 20.079s0 13.385 6.693 20.079l80.313 80.313-80.313 80.313c-6.693 6.693-6.693 13.385-6.693 20.079s0 13.385 6.693 20.079l40.157 40.157c6.693 6.693 13.385 6.693 20.079 6.693s13.385 0 20.079-6.693l80.313-87.007 80.313 80.313c6.693 6.693 13.385 6.693 20.079 6.693s13.385 0 20.079-6.693l40.157-40.157c6.693-6.693 6.693-13.385 6.693-20.079s0-13.385-6.693-20.079l-80.313-80.313 80.313-80.313c6.693-6.693 6.693-13.385 6.693-20.079s0-13.385-6.693-20.079zM512-64c-261.020 0-468.497 207.477-468.497 468.497 0 20.079 20.079 40.157 40.157 40.157s40.157-20.079 40.157-40.157c0-214.169 174.013-388.182 388.182-388.182s388.182 174.013 388.182 388.182c0 214.169-174.013 388.182-388.182 388.182h-341.333c-20.079 0-40.157 20.079-40.157 40.157s20.079 33.464 40.157 33.464h341.333c261.020 0 468.497-207.477 468.497-468.497 0-254.326-207.477-461.803-468.497-461.803zM291.138 926.535l-80.313-80.313c-6.693-6.693-6.693-20.079 0-33.464l80.313-80.313c13.385-13.385 6.693-40.157-13.385-40.157h-53.543c-6.693 0-13.385 0-13.385 6.693l-113.777 113.777c-6.693 6.693-6.693 20.079 0 33.464l107.085 107.085c6.693 6.693 6.693 6.693 13.385 6.693h46.849c26.771 0 40.157-20.079 26.771-33.464z" />
<glyph unicode="&#xe92a;" glyph-name="Roles" d="M755.646 126.945v12.589c-0.365 31.963-23.389 58.441-53.741 64.147l-0.409 0.064c-0.068 0.409-0.216 0.775-0.429 1.095l0.007-0.011c7.145 10.268 11.416 23.004 11.416 36.736 0 18.147-7.459 34.552-19.476 46.317l-0.012 0.011-17.888 17.649c-11.949 11.804-28.38 19.096-46.515 19.096-0.144 0-0.288 0-0.431-0.001h0.023c-13.372 0-26.383-3.976-37.285-11.324-0.177 0.177-0.601 0.177-1.024 0.423-6.307 30.481-32.933 53.067-64.833 53.067-0.141 0-0.281 0-0.423-0.001h-25.337c-32.165 0-59.211-22.889-65.175-52.887l-1.505-0.601c-10.252 6.943-22.895 11.084-36.505 11.084-0.189 0-0.38-0.001-0.569-0.003h0.029c-17.889 0-34.515-6.927-47.104-19.275l-17.889-17.649c-12.020-11.728-19.476-28.088-19.476-46.189 0-13.544 4.173-26.112 11.305-36.491l-0.141 0.219c-0.241-0.601-0.663-1.265-0.843-1.867-30.299-6.084-53.067-32.527-53.067-64.211v-12.168h-147.877v108.664c0 22.889 10.24 44.695 28.311 59.392 99.749 80.776 207.33 134.324 229.317 144.805 2.393 1.035 4.037 3.375 4.037 6.1 0 0.059-0.001 0.116-0.003 0.173v-0.008 152.997c-19.536 12.92-32.279 34.744-32.407 59.553v158.68c0 78.908 64.993 142.878 145.106 142.878h34.515c80.113 0 145.106-63.969 145.106-142.878v-158.418c0-24.997-12.769-46.803-32.407-59.633v-153.178c0-2.711 1.505-5 4.096-6.265 21.925-10.481 129.505-64.031 229.257-144.805 17.889-14.456 28.311-36.261 28.129-59.151v-108.724zM334.181 155.497h24.275c4.036 20.36 12.168 40.056 24.516 57.705l-17.288 16.987c-2.953 2.917-4.784 6.968-4.784 11.445s1.829 8.527 4.781 11.443l0.001 0.001 17.951 17.649c2.997 2.9 7.088 4.688 11.595 4.688s8.597-1.787 11.6-4.692l-0.004 0.004 17.468-17.227c17.889 11.927 37.707 19.937 58.368 23.733v24.335c0 8.975 7.469 16.143 16.444 16.143h25.359c0.036 0 0.079 0 0.121 0 8.94 0 16.195-7.213 16.263-16.137v-24.583c20.48-3.795 40.297-11.745 58.187-23.733l17.649 17.468c3.008 2.904 7.108 4.693 11.625 4.693s8.619-1.789 11.631-4.697l-0.005 0.005 17.889-17.649c2.953-2.917 4.784-6.968 4.784-11.445s-1.829-8.527-4.781-11.443l-0.001-0.001-17.709-17.408c12.408-17.589 20.48-37.165 24.335-57.284h24.937c8.915 0 16.384-7.108 15.963-15.721v-24.997c-0.068-8.931-7.323-16.144-16.263-16.144-0.043 0-0.085 0-0.128 0h-24.751c-3.615-20.36-11.685-40.056-23.853-57.705l17.468-17.227c2.951-2.908 4.779-6.948 4.779-11.415s-1.828-8.507-4.776-11.412l-0.001-0.001-17.889-17.649c-3.008-2.904-7.108-4.693-11.625-4.693s-8.619 1.789-11.631 4.697l0.005-0.005-17.227 16.987c-17.889-12.168-37.948-20.119-58.609-24.095v-23.973c-0.068-8.931-7.323-16.144-16.263-16.144-0.043 0-0.085 0-0.128 0h-25.352c-0.036 0-0.079 0-0.121 0-8.952 0-16.221 7.207-16.323 16.133v23.743c-22.36 4.132-42.219 12.491-59.576 24.263l0.545-0.349-16.805-16.805c-2.997-2.9-7.088-4.688-11.595-4.688s-8.597 1.787-11.6 4.692l0.004-0.004-17.951 17.649c-2.953 2.917-4.784 6.968-4.784 11.445s1.829 8.527 4.781 11.443l0.001 0.001 16.865 16.805c-11.604 16.42-20.107 35.895-24.184 56.947l-0.152 0.939h-24.033c-0.036 0-0.079 0-0.121 0-8.94 0-16.195 7.213-16.263 16.137v25.004c0.068 8.931 7.323 16.144 16.263 16.144 0.043 0 0.085 0 0.128 0h-0.007zM452.422 67.794c15.364-14.985 36.389-24.228 59.572-24.228 23.273 0 44.371 9.315 59.768 24.419l-0.013-0.013c15.227 14.907 24.668 35.672 24.668 58.643 0 23.088-9.537 43.948-24.887 58.856l-0.020 0.019c-15.348 14.995-36.365 24.247-59.543 24.247-23.267 0-44.356-9.323-59.736-24.436l0.012 0.012c-15.184-14.937-24.593-35.705-24.593-58.671 0-23.055 9.481-43.895 24.759-58.833l0.015-0.015z" />
<glyph unicode="&#xe92b;" glyph-name="save" d="M898.327 960h-898.327v-1024h1024v893.673zM512 829.672h130.327v-256h-130.327zM898.327 61.672h-768v768h65.164v-321.164h577.164v321.164h74.473l51.2-51.2z" />
<glyph unicode="&#xe92c;" glyph-name="search" d="M810.306 239.728c60.745 78.101 86.78 164.881 86.78 269.017 0 251.661-199.593 451.255-442.576 451.255s-451.255-199.593-451.255-451.255c0-251.661 199.593-451.255 451.255-451.255 104.136 0 199.593 34.712 269.017 86.78l190.915-190.915c8.677-8.677 34.712-17.356 43.389-17.356s34.712 8.677 43.389 17.356c26.033 26.033 26.033 60.745 0 86.78zM454.51 187.66c-182.237 0-321.085 138.848-321.085 321.085s147.525 321.085 321.085 321.085c173.559 0 321.085-147.525 321.085-321.085s-138.848-321.085-321.085-321.085z" />
<glyph unicode="&#xe92d;" glyph-name="setting" d="M1020.81 504.806c-1.653 14.404-18.419 25.265-32.903 25.265-46.992 0-88.632 27.548-106.028 70.129-5.235 12.627-8.275 27.289-8.275 42.663 0 33.181 14.161 63.055 36.769 83.908l0.079 0.072c5.709 5.203 9.277 12.668 9.277 20.968 0 6.676-2.309 12.813-6.173 17.656l0.044-0.057c-24.188 30.621-50.803 57.508-80.116 81.185l-0.96 0.751c-4.836 3.877-11.045 6.224-17.803 6.224-8.377 0-15.913-3.605-21.14-9.349l-0.021-0.023c-30.541-33.845-85.327-46.36-127.675-28.729-41.121 17.816-69.367 58.049-69.367 104.879 0 2.229 0.064 4.444 0.191 6.643l-0.013-0.304c0.035 0.524 0.055 1.136 0.055 1.752 0 14.531-10.939 26.508-25.032 28.144l-0.132 0.012c-17.7 2.168-38.191 3.405-58.969 3.405-19.796 0-39.329-1.123-58.54-3.308l2.351 0.217c-14.332-1.629-25.365-13.687-25.365-28.32 0-0.365 0.007-0.728 0.020-1.091l-0.001 0.052c0.044-1.191 0.069-2.588 0.069-3.992 0-47.135-28.635-87.581-69.459-104.897l-0.747-0.281c-41.876-17.159-96.268-4.644-126.731 28.808-5.231 5.724-12.728 9.301-21.061 9.301-6.664 0-12.795-2.288-17.647-6.12l0.060 0.045c-30.699-24.007-58.643-51.633-82.887-81.857-3.893-4.831-6.249-11.044-6.249-17.807 0-8.341 3.584-15.845 9.297-21.056l0.023-0.020c35.657-32.271 47.149-83.668 28.652-127.824-17.711-42.031-61.397-69.185-111.381-69.185-0.557 0.040-1.207 0.063-1.863 0.063-14.441 0-26.316-10.985-27.725-25.053l-0.009-0.116c-2.181-17.781-3.425-38.365-3.425-59.241 0-20.141 1.159-40.013 3.413-59.551l-0.224 2.381c1.575-14.483 18.892-25.187 33.611-25.187 0.368 0.004 0.803 0.007 1.237 0.007 46.847 0 86.991-28.697 103.809-69.469l0.272-0.747c17.868-43.605 6.376-94.451-28.652-126.564-5.681-5.2-9.232-12.649-9.232-20.927 0-6.695 2.323-12.848 6.205-17.697l-0.044 0.056c23.772-30.303 51.085-57.929 80.997-81.936 4.832-3.951 11.072-6.344 17.869-6.344 8.365 0 15.884 3.624 21.071 9.388l0.023 0.025c30.62 33.845 85.405 46.36 127.675 28.729 44.159-18.497 71.945-63.204 69.191-111.137-0.029-0.479-0.045-1.040-0.045-1.604 0-14.587 10.963-26.615 25.099-28.292l0.135-0.013c17.696-2.187 38.18-3.436 58.955-3.436 19.801 0 39.339 1.133 58.549 3.34l-2.345-0.219c14.325 1.592 25.365 13.632 25.365 28.249 0 0.363-0.007 0.723-0.020 1.081l0.001-0.052c-0.049 1.247-0.077 2.709-0.077 4.179 0 47.065 28.609 87.448 69.387 104.711l0.745 0.28c42.112 17.237 96.347 4.644 126.809-28.808 10.155-11.019 26.841-12.357 38.649-3.227 30.957 24.413 58.131 51.285 82.053 80.892l0.755 0.965c3.916 4.839 6.287 11.068 6.287 17.852 0 8.359-3.6 15.876-9.333 21.088l-0.023 0.021c-22.967 20.848-37.329 50.817-37.329 84.141 0 15.705 3.191 30.665 8.957 44.268l-0.28-0.744c17.916 41.003 58.023 69.187 104.739 69.421h0.031l6.297-0.157c0.485-0.029 1.052-0.047 1.621-0.047 14.576 0 26.603 10.913 28.355 25.015l0.015 0.139c2.183 17.785 3.427 38.373 3.427 59.253 0 20.137-1.159 40.005-3.412 59.539l0.224-2.381zM512.786 276.156c-94.256 0.089-170.643 76.471-170.732 170.712v0.008c0 94.215 76.589 170.799 170.732 170.799 94.221 0 170.811-76.584 170.811-170.799-0.135-94.26-76.539-170.631-170.801-170.72h-0.008z" />
<glyph unicode="&#xe92e;" glyph-name="sort-by-attributes" d="M665.877 86.445h-145.592c-4.853 0-9.707 0-14.559-4.853s-4.853-9.707-4.853-14.559v-111.621c0-4.853 0-9.707 4.853-14.559s9.707-4.853 14.559-4.853h145.592c4.853 0 9.707 0 14.559 4.853s4.853 9.707 4.853 14.559v111.621c0 4.853 0 9.707-4.853 14.559s-4.853 4.853-14.559 4.853zM394.105 159.241h-111.621v786.199c0 4.853 0 9.707-4.853 14.559h-121.327c-4.853 0-9.707 0-14.559-4.853 0 0-4.853-4.853-4.853-9.707v-786.199h-106.768c-9.707 0-14.559-4.853-19.412-9.707s0-14.559 4.853-19.412l184.417-184.417c4.853-4.853 9.707-4.853 14.559-4.853s9.707 0 14.559 4.853l179.564 179.564c4.853 4.853 4.853 9.707 4.853 14.559s0 9.707-4.853 14.559c-4.853 4.853-9.707 4.853-14.559 4.853zM777.498 377.63h-257.213c-4.853 0-9.707 0-14.559-4.853s-4.853-9.707-4.853-14.559v-111.621c0-4.853 0-9.707 4.853-14.559s9.707-4.853 14.559-4.853h257.213c4.853 0 9.707 0 14.559 4.853s4.853 9.707 4.853 14.559v111.621c0 4.853 0 9.707-4.853 14.559s-9.707 4.853-14.559 4.853zM1010.446 955.146c-4.853 4.853-9.707 4.853-14.559 4.853h-475.601c-4.853 0-9.707 0-14.559-4.853s-4.853-9.707-4.853-14.559v-111.621c0-4.853 0-9.707 4.853-14.559s9.707-4.853 14.559-4.853h475.601c4.853 0 9.707 0 14.559 4.853s4.853 9.707 4.853 14.559v116.473c0 4.853 0 9.707-4.853 9.707zM889.118 668.814h-363.981c-4.853 0-9.707 0-14.559-4.853s-4.853-9.707-4.853-14.559v-111.621c0-4.853 0-9.707 4.853-14.559s9.707-4.853 14.559-4.853h363.981c4.853 0 9.707 0 14.559 4.853s4.853 9.707 4.853 14.559v116.473c0 4.853 0 9.707-4.853 14.559z" />
<glyph unicode="&#xe92f;" glyph-name="upload1" d="M448 742.4v-550.4h128v550.4l256-256 89.6 89.6-364.8 364.8c-25.6 25.6-64 25.6-89.6 0l-364.8-364.8 89.6-89.6zM896 64h-768v192h-128v-256c0-38.4 25.6-64 64-64h896c38.4 0 64 25.6 64 64v256h-128z" />
<glyph unicode="&#xe930;" glyph-name="user" d="M994.148 397.98c-19.919-15.413-44.447-23.12-73.581-23.12h-71.483c-36.612 46.833-83.72 71.248-141.327 73.135 27.013 40.548 43.168 90.917 43.168 145.259 0 0.355-0.001 0.711-0.003 1.065v-0.055c0 11.048-0.871 23.66-2.663 37.725 23.503-8.785 47.109-13.151 70.971-13.151 20.943 0 42.141 4.096 63.443 12.288 20.263 7.492 37.435 15.695 53.792 25.253l-1.767-0.948c13.313 7.976 21.045 11.964 23.196 11.964 44.088 0.053 66.105-67.205 66.105-201.671 0-29.749-9.933-52.331-29.852-67.745zM819.232 667.449c-0.564-0.009-1.229-0.015-1.896-0.015-37.252 0-70.856 16.439-94.621 42.8l-0.055 0.060c-24.712 25.791-40.011 61.536-40.011 101.044 0 0.836 0.007 1.672 0.020 2.504l-0.001-0.125c0 40.367 13.364 74.859 39.991 103.423 23.82 26.421 57.424 42.86 94.676 42.86 0.667 0 1.332-0.005 1.997-0.016l-0.1 0.001c37.687 0 69.844-14.281 96.521-42.845s39.991-63.056 39.991-103.423c0-40.367-13.313-74.859-39.991-103.423-23.787-26.42-57.364-42.861-94.588-42.861-0.68 0-1.359 0.005-2.036 0.016l0.103-0.001zM656.809 439.155c-39.991-42.845-88.277-64.296-144.808-64.296s-104.817 21.449-144.808 64.296c-39.991 42.845-60.012 94.531-60.012 155.107s20.021 112.315 60.012 155.161c39.991 42.845 88.277 64.296 144.808 64.296s104.817-21.449 144.808-64.296c39.991-42.845 60.012-94.584 60.012-155.161s-20.021-112.261-60.012-155.107zM204.77 667.449c-0.549-0.009-1.197-0.013-1.847-0.013-37.252 0-70.856 16.439-94.621 42.799l-0.055 0.060c-24.711 25.757-40.012 61.476-40.012 100.955 0 0.868 0.008 1.733 0.023 2.597l-0.001-0.129c0 40.367 13.313 74.859 39.991 103.423 23.82 26.421 57.424 42.86 94.676 42.86 0.649 0 1.297-0.005 1.944-0.015l-0.097 0.001c37.739 0 69.895-14.281 96.573-42.845 26.627-28.564 39.991-63.056 39.991-103.423s-13.364-74.859-39.991-103.423c-23.787-26.421-57.364-42.861-94.589-42.861-0.697 0-1.393 0.005-2.088 0.017l0.105-0.001zM141.326 631.125c18.832-7.643 40.617-12.136 63.383-12.288h0.061c23.861 0 47.467 4.365 70.971 13.151-1.589-11.245-2.553-24.313-2.661-37.597l-0.001-0.129c-0.001-0.34-0.003-0.741-0.003-1.144 0-54.296 16.156-104.621 43.684-145.94l-0.515 0.816c-57.605-1.887-104.715-26.3-141.327-73.135h-71.483c-29.136 0-53.663 7.707-73.581 23.12s-29.852 37.995-29.852 67.745c0 134.465 22.019 201.671 66.105 201.671 2.151 0 9.883-3.988 23.196-11.964 14.591-8.611 31.761-16.813 49.609-23.515l2.415-0.791zM145.833 205.416c3.739 22.312 8.449 42.953 14.132 62.032 6.511 21.387 14.285 39.805 23.669 57.135l-0.729-1.463c9.627 18.108 20.636 33.523 33.079 46.295s27.651 22.959 45.624 30.612c17.016 7.205 36.745 11.385 57.403 11.385 0.72 0 1.437-0.005 2.155-0.015l-0.109 0.001c3.533 0 11.213-4.043 22.94-12.288 11.725-8.139 24.681-17.3 38.916-27.379 14.235-10.132 33.232-19.24 57.093-27.432 23.811-8.192 47.825-12.288 71.995-12.288s48.184 4.096 71.995 12.288c23.861 8.192 42.859 17.3 57.093 27.432 14.235 10.079 27.189 19.24 38.916 27.379 11.725 8.245 19.356 12.288 22.94 12.288 21.66 0 41.528-3.772 59.449-11.372 17.973-7.653 33.181-17.839 45.624-30.612s23.452-28.187 33.079-46.295c9.576-18.055 17.205-36.648 22.94-55.672 5.684-19.079 10.395-39.72 14.132-62.032s6.196-43.008 7.476-62.301c1.229-19.24 1.843-38.912 1.843-59.121 0-45.703-13.007-81.811-38.916-108.273-26.012-26.461-60.473-39.72-103.485-39.72h-466.171c-43.012 0-77.524 13.257-103.485 39.72s-38.916 62.571-38.916 108.273c0 20.211 0.615 39.936 1.844 59.121 1.28 19.295 3.737 39.989 7.476 62.301z" />
<glyph unicode="&#xe931;" glyph-name="users" d="M1014.626-37.376c-10.407-16.111-28.273-26.624-48.597-26.624-0.003 0-0.004 0-0.007 0h-908.101c-32.061 0.344-57.92 26.413-57.92 58.523 0 8.553 1.835 16.679 5.133 24.004l-0.149-0.369 115.797 263.483c5.473 12.157 14.579 21.872 25.919 27.967l0.313 0.153 179.761 94.444c1.548 0.819 3.383 1.3 5.331 1.3 2.624 0 5.045-0.873 6.987-2.345l-0.029 0.021c47.251-36.909 107.457-59.237 172.872-59.392h0.036c62.231 0 122.020 20.559 172.908 59.392 1.913 1.451 4.333 2.324 6.959 2.324 1.948 0 3.783-0.481 5.393-1.331l-0.063 0.031 179.761-94.444c11.62-6.292 20.712-15.992 26.080-27.749l0.152-0.371 115.797-263.483c3.185-6.989 5.041-15.16 5.041-23.763 0-11.807-3.497-22.797-9.511-31.993l0.137 0.224zM511.971 417.438c-126.825 0-229.625 121.463-229.625 271.281 0 207.793 102.8 271.281 229.625 271.281s229.625-63.488 229.625-271.281c0-149.819-102.8-271.281-229.625-271.281z" />
<glyph unicode="&#xe932;" glyph-name="view" d="M512.012 63.997c301.251 0 495.62 338.179 503.748 352.515 10.944 19.456 11.008 43.264 0.064 62.72-8.064 14.4-201.025 352.771-503.812 352.771-304.323 0-495.94-338.499-503.94-352.899-10.816-19.392-10.752-43.008 0.128-62.4 8.064-14.336 201.025-352.707 503.812-352.707zM512.012 704.003c181.697 0 322.307-181.441 372.355-256.001-50.176-74.624-190.785-256.001-372.355-256.001-181.825 0-322.435 181.633-372.419 256.065 49.728 74.496 189.761 255.937 372.419 255.937zM640.014 448c0-70.693-57.308-128.001-128.001-128.001s-128.001 57.308-128.001 128.001c0 70.693 57.308 128.001 128.001 128.001s128.001-57.308 128.001-128.001z" />
<glyph unicode="&#xe933;" glyph-name="workflows" d="M988.772 412.568h-78.165l18.296-43.144c0.683-1.571 0.273-3.413-1.024-4.573-0.777-0.725-1.825-1.171-2.977-1.171-0.68 0-1.323 0.155-1.896 0.432l0.027-0.012-163.84 78.37c-1.595 0.737-2.683 2.324-2.683 4.164s1.087 3.427 2.653 4.152l0.028 0.012 163.84 78.37c0.543 0.249 1.176 0.395 1.845 0.395 1.155 0 2.209-0.435 3.007-1.149l-0.004 0.004c0.825-0.741 1.343-1.811 1.343-3.003 0-0.568-0.117-1.108-0.329-1.597l0.011 0.027-18.296-43.144h43.008v297.027h-279.961v-93.525c0-11.4-9.557-20.685-21.368-20.685h-263.85c-0.083-0.001-0.179-0.001-0.276-0.001-11.493 0-20.832 9.221-21.023 20.669v255.198c0 11.4 9.557 20.616 21.299 20.616h263.85c11.811 0 21.368-9.216 21.368-20.616v-93.593h315.118c19.456 0 35.225-15.224 35.225-33.997v-365.158c-0.304-18.881-15.681-34.071-34.607-34.071-0.217 0-0.435 0.003-0.651 0.007h0.032zM603.202 891.936h-165.682v-160.29h165.682zM367.138 575.589c0 11.4 9.557 20.685 21.299 20.685h263.85c11.811 0 21.368-9.284 21.368-20.685v-255.181c0-11.4-9.557-20.616-21.368-20.616h-263.85c-0.103-0.001-0.223-0.003-0.344-0.003-11.456 0-20.764 9.191-20.955 20.601v92.177h-296.754v-297.027h43.008l-18.296 43.144c-0.22 0.472-0.348 1.025-0.348 1.608 0 1.185 0.531 2.248 1.367 2.961l0.005 0.004c0.777 0.725 1.825 1.171 2.977 1.171 0.68 0 1.323-0.155 1.896-0.432l-0.027 0.012 163.84-78.37c1.595-0.737 2.683-2.324 2.683-4.164s-1.087-3.427-2.653-4.152l-0.028-0.012-163.84-78.301c-0.56-0.28-1.22-0.444-1.919-0.444-1.128 0-2.157 0.428-2.932 1.129l0.004-0.003c-0.847 0.731-1.379 1.804-1.379 3.003 0 0.595 0.131 1.157 0.365 1.664l-0.011-0.024 18.296 43.076h-78.233c-0.164-0.003-0.357-0.004-0.551-0.004-18.925 0-34.303 15.189-34.607 34.041v365.186c0 18.773 15.701 34.065 35.157 34.065h331.981zM437.52 367.854h165.682v160.29h-165.682zM388.436 232.482h263.85c11.811 0 21.368-9.216 21.368-20.616v-255.249c0-11.332-9.557-20.616-21.368-20.616h-263.85c-0.083-0.001-0.18-0.001-0.277-0.001-11.469 0-20.793 9.183-21.021 20.597v255.27c0 11.4 9.557 20.616 21.299 20.616zM437.52 4.13h165.682v160.29h-165.682z" />
<glyph unicode="&#xe934;" glyph-name="system-references" d="M1006.72 112.832h-288.96l77.696-73.92c2.56-2.432 4.032-5.824 4.032-9.344v-16.576c-0.036-7.183-5.868-12.992-13.056-12.992-0.023 0-0.045 0-0.068 0h-397.436c-0.039 0-0.083 0-0.128 0-7.188 0-13.020 5.809-13.056 12.989v16.58c0 3.52 1.472 6.912 4.032 9.344l77.696 73.92h-110.272v106.88h607.104v432.576h-607.104v81.216h659.52c9.536 0 17.28-7.68 17.28-17.088v-586.496c-0.072-9.453-7.752-17.088-17.216-17.088-0.023 0-0.045 0-0.068 0h0.004zM587.648 182.080c-0.057 0-0.124 0.001-0.192 0.001-10.405 0-18.844-8.417-18.88-18.813v-0.004c0-10.368 8.512-18.816 19.072-18.816 0.019 0 0.041 0 0.064 0 10.417 0 18.871 8.409 18.944 18.809v0.007c-0.036 10.4-8.475 18.816-18.88 18.816-0.045 0-0.091 0-0.135 0h0.007zM266.752 0.896h-245.568c-0.039 0-0.083 0-0.128 0-11.584 0-20.983 9.355-21.056 20.921v853.255c0 11.584 9.472 20.928 21.184 20.928h245.568c0.039 0 0.084 0 0.129 0 11.597 0 21.011-9.347 21.119-20.919v-853.259c-0.108-11.581-9.523-20.928-21.119-20.928-0.045 0-0.091 0-0.136 0h0.007zM166.784 789.632c0 0 0 0 0 0 0 1.839-1.489 3.328-3.328 3.328-0.023 0-0.045 0-0.068-0.001h-38.844c-1.839 0-3.328-1.489-3.328-3.328v0-330.432c0-1.792 1.472-3.264 3.328-3.264h38.848c0.019 0 0.041 0 0.064 0 1.816 0 3.292 1.453 3.328 3.261v0.003zM124.032 285.568c0-10.88 8.96-19.712 19.968-19.712 0.019 0 0.041 0 0.064 0 10.912 0 19.767 8.809 19.84 19.705v0.007c-0.072 10.903-8.927 19.712-19.84 19.712-0.023 0-0.045 0-0.068 0h0.004c-0.039 0-0.083 0-0.128 0-10.912 0-19.767-8.811-19.84-19.705v-0.007zM144 221.056c-0.076 0-0.167 0.001-0.257 0.001-25.668 0-46.501-20.699-46.719-46.316v-0.020c0-25.6 21.056-46.4 46.976-46.4 0.076 0 0.167-0.001 0.257-0.001 25.691 0 46.537 20.736 46.719 46.384v0.017c-0.217 25.637-21.051 46.337-46.719 46.337-0.091 0-0.181 0-0.272-0.001h0.013z" />
<glyph unicode="&#xe935;" glyph-name="todo" d="M898.286-63.999h-146.984l233.315 234.889v-147.692c0-48.128-38.597-87.197-86.331-87.197zM668.594 132.529v-196.529h-456.86c-46.82 0.336-84.791 37.755-86.013 84.327l-0.003 0.113h81.92c19.613-14.493 43.323-22.528 68.056-22.528 63.576 0.491 114.925 52.143 114.925 115.788 0 0.14 0 0.279-0.001 0.419v-0.021c0 64.040-51.593 116.105-114.924 116.105-24.891 0-48.68-8.035-68.215-22.607h-81.999v146.825h82.077c19.613-14.572 43.401-22.607 68.136-22.607 63.576 0.491 114.925 52.143 114.925 115.788 0 0.14 0 0.279-0.001 0.419v-0.021c0 0.117 0.001 0.257 0.001 0.397 0 63.645-51.349 115.297-114.879 115.787h-0.047c-24.891 0-48.759-8.035-68.215-22.685h-81.999v146.825h82.156c19.613-14.572 43.323-22.607 68.056-22.607 63.576 0.491 114.925 52.143 114.925 115.788 0 0.14 0 0.279-0.001 0.419v-0.021c0 0.117 0.001 0.257 0.001 0.397 0 63.645-51.349 115.297-114.879 115.787h-0.047c-24.891 0-48.759-8.035-68.215-22.685h-81.763c1.097 46.771 39.125 84.303 85.988 84.599h686.579c47.719-0.179 86.333-38.903 86.333-86.645 0-0.195 0-0.388-0.001-0.581v0.029-618.495h-195.584c-66.621-0.491-120.439-54.611-120.439-121.301 0-0.167 0-0.335 0.001-0.501v0.025zM275.694 846.178c35.131 0 63.645-28.751 63.645-64.276 0-0.093 0.001-0.205 0.001-0.316 0-35.213-28.457-63.781-63.629-63.96h-0.017c-19.384 0.032-36.729 8.735-48.368 22.437l-0.076 0.091h-146.589c-22.815 0.089-41.276 18.605-41.276 41.432 0 0.111 0 0.221 0.001 0.332v-0.017c0 23 18.432 41.669 41.275 41.669h146.589c11.568 13.856 28.847 22.608 48.169 22.608 0.096 0 0.192 0 0.288 0h-0.015zM80.662 489.669h146.589c11.568 13.856 28.847 22.608 48.169 22.608 0.096 0 0.192 0 0.288 0h-0.015c35.131 0 63.645-28.751 63.645-64.276 0-0.093 0.001-0.205 0.001-0.316 0-35.229-28.448-63.815-63.625-64.039h-0.021c-19.393 0.064-36.735 8.792-48.367 22.515l-0.076 0.092h-146.589c-22.815 0.089-41.276 18.605-41.276 41.432 0 0.083 0 0.167 0.001 0.249v-0.013c0 23.080 18.432 41.748 41.275 41.748zM80.662 155.766h146.589c11.611 13.857 28.924 22.607 48.28 22.607 0.057 0 0.115 0 0.172 0h-0.009c35.131 0 63.645-28.751 63.645-64.276 0-0.093 0.001-0.205 0.001-0.316 0-35.229-28.448-63.815-63.625-64.039h-0.021c-19.393 0.064-36.735 8.792-48.367 22.515l-0.076 0.092h-146.589c-22.815 0.089-41.276 18.605-41.276 41.432 0 0.083 0 0.167 0.001 0.249v-0.013c0 23.080 18.432 41.748 41.275 41.748zM789.033 185.146h112.719l-164.707-165.888v113.271c0 28.987 23.316 52.617 51.988 52.617z" />
<glyph unicode="&#xe936;" glyph-name="unpublish" d="M636.078 710.512c109.668 0 190.092-88.736 190.092-192.263 0-7.395 0-7.395 0-14.789v-51.763l43.868-14.789c65.801-22.184 102.357-96.131 80.424-170.079-14.623-51.763-65.801-88.736-116.98-88.736h-643.39c-73.112 0-131.603 59.157-131.603 133.104s58.489 125.709 124.291 133.104c0 0 7.311 0 7.311 0h51.179l14.623 44.368c14.623 51.763 65.801 88.736 116.98 88.736 7.311 0 14.623 0 21.933 0l43.868-7.395 21.933 44.368c43.868 51.763 109.668 96.131 175.469 96.131zM636.078 777.064c-95.047 0-175.469-51.763-219.337-133.104-14.623 0-21.933 0-36.556 0-80.424 0-153.536-51.763-182.781-133.104-7.311 0-7.311 0-14.623 0-102.357 0-182.781-96.131-182.781-199.657s87.735-192.263 190.092-192.263h643.39c109.668 0 197.404 88.736 190.092 199.657 0 81.341-51.179 155.289-131.603 184.868 0 7.395 0 7.395 0 14.789 7.311 133.104-109.668 251.42-255.893 258.815zM577.589 399.935l65.801 66.552c7.311 7.395 7.311 14.789 0 22.184s-14.623 7.395-21.933 0c0 0 0 0 0 0l-65.801-66.552-65.801 66.552c-7.311 7.395-14.623 7.395-21.933 0s-7.311-14.789 0-22.184l65.801-66.552-65.801-66.552c-7.311-7.395-7.311-14.789 0-22.184s14.623-7.395 21.933 0l65.801 66.552 65.801-66.552c7.311-7.395 14.623-7.395 21.933 0s7.311 14.789 0 22.184z" />
<glyph unicode="&#xe937;" glyph-name="pages" d="M917.806 602.924c-22.21 30.292-53.174 65.7-87.178 99.704s-69.412 64.964-99.704 87.178c-51.574 37.82-76.592 42.194-90.924 42.194h-368c-44.114 0-80-35.888-80-80v-736c0-44.112 35.886-80 80-80h608c44.112 0 80 35.888 80 80v496c0 14.332-4.372 39.35-42.194 90.924zM785.374 657.374c30.7-30.7 54.8-58.398 72.58-81.374h-153.954v153.946c22.982-17.78 50.678-41.878 81.374-72.572v0zM896 16c0-8.672-7.328-16-16-16h-608c-8.672 0-16 7.328-16 16v736c0 8.672 7.328 16 16 16 0 0 367.956 0.002 368 0v-224c0-17.672 14.324-32 32-32h224v-496zM602.924 917.804c-51.574 37.822-76.592 42.196-90.924 42.196h-368c-44.112 0-80-35.888-80-80v-736c0-38.632 27.528-70.958 64-78.39v814.39c0 8.672 7.328 16 16 16h486.876c-9.646 7.92-19.028 15.26-27.952 21.804z" />
<glyph unicode="&#xe938;" glyph-name="history" d="M1023.996 438.858c0-281.999-230-511.999-511.999-511.999-152.666 0-296.667 67.333-393.999 184.667-6.666 8.667-6 21.334 1.333 28.666l91.334 92c4.667 4 10.667 6 16.667 6 6-0.666 12-3.333 15.333-8 65.333-84.666 163.333-132.666 269.333-132.666 188 0 341.333 153.334 341.333 341.333s-153.334 341.333-341.333 341.333c-87.333 0-170-33.333-232-91.334l91.334-92c12.666-12 16-30.667 9.333-46-6.666-16-22-26.666-39.333-26.666h-298.666c-23.333 0-42.666 19.333-42.666 42.666v298.666c0 17.333 10.667 32.667 26.666 39.333 15.333 6.666 34 3.333 46-9.333l86.667-86c93.999 88.667 221.333 141.333 352.667 141.333 281.999 0 511.999-230 511.999-511.999zM597.33 630.858v-298.666c0-12-9.333-21.334-21.334-21.334h-213.333c-12 0-21.334 9.333-21.334 21.334v42.666c0 12 9.333 21.334 21.334 21.334h149.333v234.667c0 12 9.333 21.334 21.334 21.334h42.666c12 0 21.334-9.333 21.334-21.334z" />
<glyph unicode="&#xe939;" glyph-name="stop-circle-o" horiz-adv-x="878" d="M438.857 877.714c242.286 0 438.857-196.571 438.857-438.857s-196.571-438.857-438.857-438.857-438.857 196.571-438.857 438.857 196.571 438.857 438.857 438.857zM438.857 128c171.429 0 310.857 139.429 310.857 310.857s-139.429 310.857-310.857 310.857-310.857-139.429-310.857-310.857 139.429-310.857 310.857-310.857zM274.286 256c-10.286 0-18.286 8-18.286 18.286v329.143c0 10.286 8 18.286 18.286 18.286h329.143c10.286 0 18.286-8 18.286-18.286v-329.143c0-10.286-8-18.286-18.286-18.286h-329.143z" />
<glyph unicode="&#xe93a;" glyph-name="program" d="M979.663 188.291h-345.892v-120.979h134.583c25.308 0 45.86-22.163 45.86-49.372s-20.553-49.372-45.86-49.372h-502.199c-25.308 0-45.933 22.163-45.933 49.372s20.627 49.372 45.933 49.372h134.583v120.979h-345.892c-27.428 0-49.591 23.844-49.591 53.321v624.42c0 29.549 22.163 53.395 49.591 53.395h924.819c27.356 0 49.591-23.844 49.591-53.395v-624.42c0-29.476-22.236-53.321-49.591-53.321zM954.867 839.408h-875.228v-571.1h875.228zM396.201 663.645c3.721 1.904 8.117 3.020 12.775 3.020 6.116 0 11.783-1.925 16.427-5.201l-0.089 0.060c8.54-6.029 14.049-15.856 14.049-26.971 0-0.212-0.003-0.424-0.007-0.635v0.032-0.804c0.003-0.148 0.004-0.321 0.004-0.496 0-12.585-7.032-23.529-17.383-29.113l-0.176-0.087-97.792-48.932 97.792-48.86c10.679-5.412 17.555-17.043 17.555-29.696v-0.877c0.001-0.135 0.003-0.293 0.003-0.453 0-11.159-5.504-21.032-13.945-27.053l-0.101-0.069c-4.563-3.203-10.232-5.117-16.349-5.117-4.651 0-9.041 1.107-12.925 3.072l0.164-0.075-156.452 78.336c-10.524 5.653-17.557 16.583-17.557 29.156 0 0.164 0.001 0.328 0.004 0.491v-0.025 2.34c0 12.727 6.876 24.356 17.555 29.696zM539.416 737.155c3.569 12.983 15.121 22.42 28.928 22.747l0.036 0.001h0.804c9.655 0 18.797-5.047 24.503-13.459 3.664-5.42 5.848-12.101 5.848-19.292 0-3.553-0.533-6.983-1.525-10.211l0.065 0.247-103.059-343.625c-3.519-12.987-15.060-22.437-28.857-22.747h-0.839c-10.216 0.156-19.169 5.421-24.435 13.348l-0.069 0.111c-3.687 5.447-5.885 12.163-5.885 19.392 0 3.516 0.52 6.912 1.488 10.112l-0.064-0.247zM625.504 666.717c4.461 0 8.851-1.097 12.8-3.072l156.38-78.263c10.567-5.679 17.629-16.656 17.629-29.283 0-0.145-0.001-0.291-0.003-0.435v0.023-2.34c0.001-0.115 0.003-0.249 0.003-0.384 0-12.615-7.064-23.579-17.453-29.152l-0.177-0.087-156.38-78.336c-3.729-1.881-8.129-2.983-12.787-2.983-6.131 0-11.816 1.909-16.492 5.167l0.095-0.063c-8.544 6.12-14.045 16.016-14.045 27.196 0 0.133 0.001 0.265 0.003 0.399v-0.020 0.877c0 12.653 6.948 24.284 17.628 29.696l97.792 48.86-97.792 48.932c-10.569 5.717-17.629 16.719-17.629 29.371 0 0.115 0 0.229 0.001 0.343v-0.017 0.804c0 11.264 5.267 21.577 14.044 27.648 4.589 3.165 10.259 5.073 16.372 5.12h0.012z" />
<glyph unicode="&#xe93b;" glyph-name="projects" d="M895.050 68.542v-120.013h-783.974v120.013h-120.013v783.974h120.013v120.013h783.974v-239.957h120.013v-664.028zM111.077 792.577h-60.007v-60.007h60.007zM111.077 672.565h-60.007v-544.017h60.007zM655.024 50.998l137.557 137.557h-137.557zM835.044 912.522h-663.96v-903.985h424.003v240.025h239.957v663.96zM835.044 146.092l-137.557-137.557h137.557zM955.055 672.565h-60.007v-544.017h60.007zM291.027 490.567h424.003v-60.007h-424.003zM291.027 610.578h424.003v-60.007h-424.003zM291.027 730.524h424.003v-60.007h-424.003z" />
<glyph unicode="&#xe93c;" glyph-name="design" d="M960 960h-256c-38.4 0-64-25.6-64-64v-64h-403.2c-19.2 38.4-64 64-108.8 64-70.4 0-128-57.6-128-128s57.6-128 128-128c44.8 0 89.6 25.6 108.8 64h192c-128-89.6-230.4-224-275.2-384h-89.6c-38.4 0-64-25.6-64-64v-256c0-38.4 25.6-64 64-64h256c38.4 0 64 25.6 64 64v256c0 38.4-25.6 64-64 64h-32c57.6 166.4 185.6 294.4 352 352v-32c0-38.4 25.6-64 64-64h256c38.4 0 64 25.6 64 64v256c0 38.4-25.6 64-64 64zM256 64h-128v128h128v-128zM896 704h-128v128h128v-128z" />
<glyph unicode="&#xe93d;" glyph-name="menu" d="M0 768h1024v-114.667h-1024v114.667zM0 370.667v112h1024v-112h-1024zM0 85.334v114.667h1024v-114.667h-1024z" />
<glyph unicode="&#xe93e;" glyph-name="stop" d="M715.41 960h-422.437l-302.117-301.312v-421.339l302.117-301.349 422.437 2.67 299.447 298.679v421.339l-299.447 301.312zM978.286 252.379l-278.089-277.321-392.229-2.487-280.539 279.808v391.278l280.539 279.771h392.265l278.089-279.771v-391.278zM811.557 448.841c7.022 1.865 12.91 5.157 17.554 9.874 4.169 4.242 7.241 8.85 9.143 13.861 1.938 5.047 2.889 10.862 2.889 17.554 0 7.278-1.243 13.605-3.803 19.017-2.523 5.339-6.363 9.765-11.483 13.166-4.498 2.926-9.691 5.010-15.653 6.217s-13.349 1.865-22.199 1.865h-23.442v-84.297h19.273c11.447 0 20.699 0.914 27.721 2.743zM658.395 512.914c-5.595 7.351-12.398 12.873-20.37 16.53s-16.896 5.486-26.807 5.486c-10.277 0-19.273-1.792-26.953-5.339-7.68-3.621-14.482-9.143-20.407-16.677-5.595-7.241-9.911-16.347-12.946-27.282-2.999-10.971-4.498-23.369-4.498-37.193 0-27.941 5.851-49.335 17.554-64.146 11.739-14.811 27.465-22.199 47.214-22.199 19.712 0 35.438 7.387 47.104 22.199s17.518 36.206 17.518 64.146c0 14.117-1.536 26.587-4.571 37.449-3.035 10.898-7.314 19.895-12.837 27.026zM315.465 905.143l-269.751-269.019v-376.174l269.751-269.056 377.161 2.377 267.374 266.679v376.174l-267.374 269.019h-377.161zM310.93 377.966c-3.401-8.082-8.155-14.921-14.226-20.553-6.875-6.181-14.629-10.971-23.259-14.299-8.631-3.365-19.419-5.010-32.402-5.010-15.47 0-28.562 1.609-39.387 4.791s-20.992 7.095-30.501 11.776v35.438h2.011c9.362-8.704 19.931-15.47 31.744-20.261s23.223-7.168 34.194-7.168c15.653 0 27.465 3.255 35.474 9.765 8.046 6.546 12.032 15.104 12.032 25.783 0 8.411-2.121 15.36-6.327 20.663s-10.898 9.253-20.078 11.813c-6.619 1.938-12.617 3.511-18.030 4.718-5.449 1.243-12.288 2.926-20.48 5.047-7.351 1.902-13.97 4.315-19.749 7.278-5.815 2.926-11.008 6.802-15.47 11.557-4.389 4.681-7.826 10.167-10.24 16.494-2.414 6.363-3.657 13.641-3.657 21.979 0 17.262 6.729 31.671 20.187 43.374s30.647 17.518 51.529 17.518c11.922 0 23.223-1.207 33.865-3.584s20.517-5.742 29.586-10.094v-33.755h-2.158c-6.802 6.107-15.47 11.41-26.075 16.018s-21.76 6.875-33.39 6.875c-13.166 0-23.808-3.072-31.927-9.216s-12.178-14.19-12.178-24.174c0-9.033 2.377-16.201 7.168-21.541s11.703-9.253 20.773-11.703c5.998-1.609 13.349-3.474 22.053-5.486s15.909-3.913 21.65-5.632c14.665-4.498 25.417-11.264 32.183-20.334 6.802-9.033 10.167-20.187 10.167-33.426 0-8.338-1.682-16.53-5.083-24.649zM507.867 525.239h-69.157v-183.15h-35.145v183.15h-66.853v32h171.154v-32zM736.293 554.971h53.431c12.581 0 23.296-1.061 32.146-3.145 8.85-2.121 16.677-5.486 23.442-10.13 7.899-5.413 14.117-12.325 18.578-20.626 4.462-8.375 6.729-18.432 6.729-30.208 0-9.253-1.646-17.993-4.937-26.222-3.291-8.265-7.826-15.287-13.641-21.065-7.314-7.241-15.982-12.727-25.856-16.421-9.911-3.73-22.418-5.559-37.559-5.559h-23.991v-79.433h-28.27v212.809zM705.28 448.475c0-17.298-2.194-32.878-6.583-46.811s-10.715-25.6-19.054-35.072c-8.667-9.911-18.798-17.262-30.354-21.979-11.593-4.718-24.32-7.058-38.254-7.058-14.409 0-27.355 2.414-38.875 7.278s-21.431 12.105-29.733 21.76c-8.192 9.472-14.482 21.102-18.871 34.926-4.389 13.861-6.583 29.513-6.583 46.958 0 17.92 2.231 33.682 6.656 47.214 4.425 13.568 10.752 25.198 18.944 34.926 8.229 9.472 18.103 16.64 29.696 21.541 11.557 4.937 24.539 7.387 38.839 7.387 14.482 0 27.538-2.523 39.168-7.607 11.593-5.047 21.431-12.142 29.44-21.321 8.119-9.362 14.409-20.919 18.907-34.779 4.425-13.824 6.656-29.623 6.656-47.36z" />
<glyph unicode="&#xe93f;" glyph-name="clock" d="M512 960c-282.784 0-512-229.248-512-512s229.216-512 512-512 512 229.248 512 512c0 282.752-229.216 512-512 512zM512 64c-212.064 0-384 171.936-384 384s171.936 384 384 384 384-171.936 384-384-171.936-384-384-384zM736 512h-160v224c0 17.664-14.304 32-32 32h-64c-17.696 0-32-14.336-32-32v-320c0-17.696 14.304-32 32-32h256c17.696 0 32 14.304 32 32v64c0 17.696-14.304 32-32 32z" />
<glyph unicode="&#xe940;" glyph-name="stop1" d="M512 960c-282.784 0-512-229.216-512-512s229.216-512 512-512 512 229.216 512 512-229.216 512-512 512zM704 320c0-35.328-28.672-64-64-64h-256c-35.328 0-64 28.672-64 64v256c0 35.328 28.672 64 64 64h256c35.328 0 64-28.672 64-64v-256z" />
<glyph unicode="&#xe941;" glyph-name="file-text2" d="M917.806 730.924c-22.212 30.292-53.174 65.7-87.178 99.704s-69.412 64.964-99.704 87.178c-51.574 37.82-76.592 42.194-90.924 42.194h-496c-44.112 0-80-35.888-80-80v-864c0-44.112 35.888-80 80-80h736c44.112 0 80 35.888 80 80v624c0 14.332-4.372 39.35-42.194 90.924zM785.374 785.374c30.7-30.7 54.8-58.398 72.58-81.374h-153.954v153.946c22.984-17.78 50.678-41.878 81.374-72.572zM896 16c0-8.672-7.328-16-16-16h-736c-8.672 0-16 7.328-16 16v864c0 8.672 7.328 16 16 16 0 0 495.956 0.002 496 0v-224c0-17.672 14.326-32 32-32h224v-624zM736 128h-448c-17.672 0-32 14.326-32 32s14.328 32 32 32h448c17.674 0 32-14.326 32-32s-14.326-32-32-32zM736 256h-448c-17.672 0-32 14.326-32 32s14.328 32 32 32h448c17.674 0 32-14.326 32-32s-14.326-32-32-32zM736 384h-448c-17.672 0-32 14.326-32 32s14.328 32 32 32h448c17.674 0 32-14.326 32-32s-14.326-32-32-32z" />
<glyph unicode="&#xe942;" glyph-name="close" d="M1024 835.58l-408.913-408.913 408.913-408.913-103.087-103.087-408.913 408.913-408.913-408.913-103.087 103.087 408.913 408.913-408.913 408.913 103.087 103.087 408.913-408.913 408.913 408.913z" />
<glyph unicode="&#xe943;" glyph-name="upload" d="M448 742.4v-550.4h128v550.4l256-256 89.6 89.6-364.8 364.8c-25.6 25.6-64 25.6-89.6 0l-364.8-364.8 89.6-89.6 256 256zM896 64h-768v192h-128v-256c0-38.4 25.6-64 64-64h896c38.4 0 64 25.6 64 64v256h-128v-192z" />
<glyph unicode="&#xe944;" glyph-name="jobs2" horiz-adv-x="1078" d="M970.105-64h-862.316c-59.53 0-107.789 48.259-107.789 107.789v0 592.842c0 59.53 48.259 107.789 107.789 107.789v0h215.579v107.789l107.789 107.789h215.579l107.789-107.789v-107.789h215.579c59.53 0 107.789-48.259 107.789-107.789v0-592.842c0-59.53-48.259-107.789-107.789-107.789v0zM538.947 582.737c-148.826 0-269.474-120.647-269.474-269.474s120.647-269.474 269.474-269.474c148.826 0 269.474 120.647 269.474 269.474v0c-0.153 148.764-120.709 269.32-269.459 269.474h-0.015zM431.158 852.211v-107.789h215.579v107.789zM664.684 187.473h-251.473v251.527h251.527v-251.419z" />
<glyph unicode="&#xe945;" glyph-name="jobs1" horiz-adv-x="1078" d="M970.105-64h-862.316c-59.53 0-107.789 48.259-107.789 107.789v0 592.842c0 59.53 48.259 107.789 107.789 107.789v0h215.579v107.789l107.789 107.789h215.579l107.789-107.789v-107.789h215.579c59.53 0 107.789-48.259 107.789-107.789v0-592.842c0-59.53-48.259-107.789-107.789-107.789v0zM538.947 582.737c-148.826 0-269.474-120.647-269.474-269.474s120.647-269.474 269.474-269.474c148.826 0 269.474 120.647 269.474 269.474v0c-0.153 148.764-120.709 269.32-269.459 269.474h-0.015zM431.158 852.211v-107.789h215.579v107.789zM476.052 169.526c-1.536 0.003-2.983 0.381-4.254 1.048l0.051-0.024c-2.845 1.55-4.743 4.518-4.743 7.93 0 0.016 0 0.033 0 0.049v-0.003 269.474c0 0.014 0 0.030 0 0.047 0 3.412 1.898 6.38 4.696 7.906l0.047 0.024c1.221 0.643 2.668 1.021 4.203 1.024h0.001c0.014 0 0.031 0 0.047 0 1.877 0 3.617-0.585 5.048-1.582l-0.029 0.019 197.632-134.737c2.388-1.642 3.934-4.359 3.934-7.437v0c0-0.016 0-0.036 0-0.055 0-3.062-1.548-5.763-3.903-7.362l-0.031-0.020-197.632-134.737c-1.413-0.946-3.151-1.509-5.021-1.509-0.016 0-0.031 0-0.047 0h0.002z" />
<glyph unicode="&#xe946;" glyph-name="Private" horiz-adv-x="1049" d="M820.090 173.203c-21.396-0.005-38.739-17.351-38.739-38.747 0-13.228 6.629-24.908 16.746-31.899l0.129-0.085v-59.196h43.78v59.039c10.246 7.076 16.875 18.756 16.875 31.983 0 21.396-17.343 38.743-38.739 38.747v0zM814.27 374.123c-42.497-0.030-76.941-34.473-76.971-76.968v-44.204h153.889v44.201c-0.030 42.479-34.444 76.911-76.913 76.971h-0.006zM1007.116 333.907c-7.074 99.504-88.407 177.849-188.531 180.152l-0.224 0.004c-76.262-0.988-141.526-47.052-170.453-112.726l-0.475-1.209-56.575 50.44-99.044-103.659-99.306 103.659-57.675-51.016-119.912-58.2c-18.824-8.203-33.983-21.891-43.804-39.030l-0.238-0.451-170.929-299.912h588.708c-0.001-0.115-0.001-0.251-0.001-0.387 0-35.684 28.472-64.718 63.937-65.624l0.084-0.002h331.843c35.592 0.927 64.091 30 64.091 65.729 0 0.542-0.007 1.082-0.020 1.621l0.002-0.080v267.718c0.003 0.24 0.005 0.523 0.005 0.806 0 27.855-16.917 51.759-41.037 61.998l-0.441 0.166zM987.139 3.218h-331.791v267.718h40.582v44.201c-0.1 1.875-0.157 4.071-0.157 6.281 0 69.295 56.175 125.47 125.47 125.47s125.47-56.175 125.47-125.47c0-2.209-0.057-4.405-0.17-6.587l0.013 0.305v-44.201h40.635v-267.718zM492.18 386.655h1.363c146.81-2.202 235.945 126.309 238.461 338.24 1.468 146.81-89.711 231.121-238.199 235.053h-1.625c-148.488-3.932-239.72-88.034-238.251-235.053 2.307-211.879 91.441-340.442 238.251-338.24z" />
<glyph unicode="&#xe947;" glyph-name="Public" horiz-adv-x="900" d="M306.637 816.64c0 79.176 64.184 143.36 143.36 143.36s143.36-64.184 143.36-143.36c0-79.176-64.184-143.36-143.36-143.36v0c-79.176 0-143.36 64.184-143.36 143.36v0zM518.656 576c1.522 31.693 12.332 60.593 29.744 84.352l-0.304-0.435c-11.265 2.471-24.205 3.888-37.476 3.891h-121.5c-0.022 0-0.048 0-0.075 0-13.208 0-26.088-1.398-38.503-4.055l1.201 0.215c18.306-25.022 29.357-56.361 29.542-90.273v-0.044c21.69 12.128 47.591 19.27 75.161 19.27 22.496 0 43.882-4.755 63.206-13.316l-0.997 0.394zM542.925 563.149c41.742-26.326 70.462-70.037 76.018-120.716l0.065-0.731c16.351-7.817 35.539-12.382 55.794-12.382 72.841 0 131.891 59.050 131.891 131.891s-59.050 131.891-131.891 131.891c-72.16 0-130.785-57.95-131.876-129.851l-0.001-0.103zM456.448 292.966c72.848 0.029 131.891 59.091 131.891 131.942 0 72.87-59.073 131.942-131.942 131.942s-131.942-59.073-131.942-131.942v0c0.029-72.848 59.091-131.891 131.942-131.891 0.018 0 0.036 0 0.054 0h-0.003zM512.41 284.006h-111.923c-93.314 0-168.96-75.646-168.96-168.96v0-136.909l0.358-2.15 9.421-2.97c68.517-22.851 147.433-36.343 229.405-37.015l0.33-0.002c4.556-0.158 9.911-0.248 15.287-0.248 66.943 0 130.627 13.954 188.302 39.112l-3.038-1.181 8.806 4.454h0.922v137.062c0 93.278-75.588 168.902-168.852 168.96h-0.006zM730.726 420.198h-111.104c-1.21-44.61-20.204-84.56-50.117-113.198l-0.059-0.056c83.51-25.49 143.233-101.805 143.36-192.088v-42.204c64.101 0.471 124.892 14.121 179.966 38.368l-2.917-1.145 8.806 4.454h0.922v136.96c-0.029 93.238-75.576 168.821-168.798 168.909h-0.008zM224.973 429.21c26.056 0.032 50.323 7.662 70.713 20.792l-0.518-0.312c6.773 42.607 29.194 79.023 61.075 103.867l0.365 0.274c0 2.458 0.358 5.12 0.358 7.424-0.058 72.826-59.109 131.84-131.942 131.84-72.87 0-131.942-59.073-131.942-131.942 0-72.852 59.043-131.913 131.888-131.942h0.003zM343.45 306.944c-29.825 28.559-48.783 68.258-50.17 112.387l-0.006 0.253c-4.096 0.307-8.192 0.614-12.39 0.614h-111.923c-93.314 0-168.96-75.646-168.96-168.96v0-136.909l0.358-2.099 9.421-2.97c55.924-18.522 120.765-31.299 187.889-35.715l2.37-0.125v41.37c0.11 90.331 59.863 166.677 141.989 191.78l1.422 0.374z" />
<glyph unicode="&#xe948;" glyph-name="refresh" horiz-adv-x="1170" d="M729.407 228.62l219.672 292.506 221.076-292.506h-146.254v-73.127c-0.133-121.106-98.273-219.246-219.367-219.38h-438.773c-121.106 0.133-219.246 98.273-219.38 219.367v73.14h146.254v-73.127c0.067-40.36 32.767-73.060 73.121-73.127h438.766c40.36 0.067 73.060 32.767 73.127 73.121v73.133zM440.879 667.38l-219.672-292.506-221.076 292.506h146.254v73.127c0.133 121.106 98.273 219.246 219.367 219.38h438.773c121.106-0.133 219.246-98.273 219.38-219.367v-73.14h-146.254v73.127c-0.067 40.36-32.767 73.060-73.121 73.127h-438.766c-40.36-0.067-73.060-32.767-73.127-73.121v-73.133z" />
<glyph unicode="&#xe94a;" glyph-name="jobs" horiz-adv-x="1165" d="M1131.189 823.451h-309.798v34.137c-0.066 56.493-45.812 102.279-102.283 102.412h-273.111c-56.484-0.132-102.229-45.919-102.295-102.405v-34.143h-309.565c-18.84-0.033-34.104-15.297-34.137-34.134v-750.905c0.066-56.534 45.878-102.345 102.405-102.412h960.276c56.534 0.066 102.345 45.878 102.412 102.405v750.326c0.032 0.543 0.050 1.177 0.050 1.816 0 18.307-14.84 33.147-33.147 33.147-0.284 0-0.567-0.004-0.849-0.011l0.042 0.001zM411.919 857.588c0.033 18.84 15.297 34.104 34.134 34.137h273.101c18.84-0.033 34.104-15.297 34.137-34.134v-34.14h-341.372zM1083.536 755.177l-106.023-318.012c-4.651-13.655-17.364-23.302-32.33-23.302-0.021 0-0.042 0-0.063 0h-192.237v34.137c0 18.853-15.284 34.137-34.137 34.137v0h-272.69c-18.853 0-34.137-15.284-34.137-34.137v-34.137h-192.24c-0.018 0-0.039 0-0.060 0-14.966 0-27.679 9.647-32.259 23.062l-0.071 0.24-105.732 318.012zM684.958 413.863v-68.274h-204.823v68.274zM1096.818 38.412c-0.033-18.84-15.297-34.104-34.134-34.137h-960.272c-18.84 0.033-34.104 15.297-34.137 34.134v540.606l54.468-163.113c13.954-40.964 52.092-69.906 96.99-69.906 0.042 0 0.085 0 0.127 0h192.234v-34.137c0-18.853 15.284-34.137 34.137-34.137v0h273.098c18.853 0 34.137 15.284 34.137 34.137v34.137h192.24c0.036 0 0.078 0 0.12 0 44.898 0 83.036 28.941 96.777 69.186l0.213 0.72 54.468 163.113z" />
<glyph unicode="&#xe94b;" glyph-name="magnifying-glass" d="M1011.439 8.704l-246.17 246.17c60.745 73.74 97.58 169.157 97.58 273.177 0 238.13-193.042 431.172-431.172 431.172s-431.172-193.042-431.172-431.172c0-238.13 193.042-431.172 431.172-431.172 104.020 0 199.437 36.835 273.918 98.172l-0.741-0.593 246.17-245.76c7.723-7.748 18.406-12.543 30.208-12.543 23.554 0 42.648 19.094 42.648 42.648 0 11.752-4.753 22.393-12.441 30.107l0.001-0.001zM431.514 182.784c-190.934 0.039-345.702 154.831-345.702 345.771 0 190.964 154.807 345.771 345.771 345.771s345.771-154.807 345.771-345.771c0-0.048 0-0.096 0-0.144v0.007c-0.272-190.851-154.972-345.479-345.824-345.634h-0.015z" />
<glyph unicode="&#xe94c;" glyph-name="twocolumnslayout" horiz-adv-x="1109" d="M1078.012 928.656c-18.703 19.344-44.887 31.354-73.876 31.354-0.509 0-1.017-0.004-1.524-0.011l0.077 0.001h-896.020c-0.43 0.006-0.939 0.010-1.448 0.010-28.989 0-55.173-12.010-73.848-31.326l-0.028-0.029c-19.344-18.703-31.354-44.887-31.354-73.876 0-0.509 0.004-1.017 0.011-1.524l-0.001 0.077v-810.664c-0.006-0.43-0.010-0.939-0.010-1.448 0-28.989 12.010-55.173 31.326-73.848l0.029-0.028c18.703-19.344 44.887-31.354 73.876-31.354 0.509 0 1.017 0.004 1.524 0.011l-0.077-0.001h896.020c58.837 0.184 106.483 47.831 106.668 106.65v810.682c0.006 0.43 0.010 0.939 0.010 1.448 0 28.989-12.010 55.173-31.326 73.848l-0.029 0.028zM512.027 21.356h-405.359c-11.685 0.209-21.103 9.627-21.312 21.292v746.695h426.671v-767.986zM1024 42.722c-0.209-11.685-9.627-21.103-21.292-21.312h-405.379v767.932h426.671v-746.675z" />
<glyph unicode="&#xe94d;" glyph-name="history1" horiz-adv-x="1088" d="M640 896c247.424 0 448-200.576 448-448s-200.576-448-448-448v96c94.024 0 182.418 36.614 248.902 103.098s103.098 154.878 103.098 248.902c0 94.022-36.614 182.418-103.098 248.902s-154.878 103.098-248.902 103.098c-94.022 0-182.418-36.614-248.902-103.098-51.14-51.138-84.582-115.246-97.306-184.902h186.208l-224-256-224 256h164.57c31.060 217.102 217.738 384 443.43 384zM832 512v-128h-256v320h128v-192z" />
<glyph unicode="&#xe94e;" glyph-name="stack" d="M1024 640l-512 256-512-256 512-256 512 256zM512 811.030l342.058-171.030-342.058-171.030-342.058 171.030 342.058 171.030zM921.444 499.278l102.556-51.278-512-256-512 256 102.556 51.278 409.444-204.722zM921.444 307.278l102.556-51.278-512-256-512 256 102.556 51.278 409.444-204.722z" />
<glyph unicode="&#xe94f;" glyph-name="document" horiz-adv-x="740" d="M590.010 440.002h-440.020c-16.568 0-29.999-13.431-29.999-29.999s13.431-29.999 29.999-29.999h440.020c16.568 0 29.999 13.431 29.999 29.999s-13.431 29.999-29.999 29.999v0zM574.128 177.527c-3.642-2.304-8.075-3.671-12.828-3.671-8.683 0-16.301 4.564-20.584 11.424l-0.059 0.102-17.931 28.974c-5.378 8.583-14.785 14.206-25.505 14.206-11.794 0-21.999-6.807-26.9-16.706l-0.078-0.175-54.761-112.595c-1.906-3.832-3.021-8.346-3.021-13.121 0-16.57 13.433-30.003 30.003-30.003 11.796 0 22.001 6.807 26.903 16.707l0.078 0.175 32.048 65.861c15.276-15.379 36.435-24.898 59.817-24.898 16.492 0 31.878 4.736 44.873 12.922l-0.349-0.205c8.622 5.4 14.271 14.848 14.271 25.616 0 16.637-13.487 30.125-30.125 30.125-5.87 0-11.348-1.679-15.979-4.582l0.126 0.074zM310.002 320.007h-160.012c-16.568 0-29.999-13.431-29.999-29.999s13.431-29.999 29.999-29.999h160.012c16.568 0 29.999 13.431 29.999 29.999s-13.431 29.999-29.999 29.999v0zM710.005 960h-567.7c-0.012 0-0.026 0-0.040 0-8.274 0-15.765-3.35-21.193-8.767v0l-112.31-112.31c-5.417-5.427-8.766-12.918-8.766-21.192 0-0.014 0-0.028 0-0.043v0.002-851.692c0-16.568 13.431-29.999 29.999-29.999h680.010c16.568 0 29.999 13.431 29.999 29.999v0 964.002c0 16.568-13.431 29.999-29.999 29.999v0zM680.006-4.002h-620.013v809.284l94.721 94.721h525.292zM429.997 619.995h160.012c16.568 0 29.999 13.431 29.999 29.999v0 160.012c0 16.568-13.431 29.999-29.999 29.999v0h-160.012c-16.568 0-29.999-13.431-29.999-29.999v0-160.012c0-16.568 13.431-29.999 29.999-29.999v0zM459.996 780.007h100.015v-100.015h-100.015zM590.010 559.997h-440.020c-16.568 0-29.999-13.431-29.999-29.999s13.431-29.999 29.999-29.999h440.020c16.568 0 29.999 13.431 29.999 29.999s-13.431 29.999-29.999 29.999v0z" />
</font>
</defs>
</svg>
